  0
SECTION
  2
HEADER
  9
$ACADVER
  1
AC1015
  9
$ACADMAINTVER
 70
     6
  9
$DWGCODEPAGE
  3
ANSI_1252
  9
$INSBASE
 10
0.0
 20
0.0
 30
0.0
  9
$EXTMIN
 10
-5.14489345779498
 20
-0.23452093780543
 30
0.0
  9
$EXTMAX
 10
291.8551065422055
 20
209.7654790621948
 30
0.0
  9
$LIMMIN
 10
0.0
 20
0.0
  9
$LIMMAX
 10
12.0
 20
9.0
  9
$ORTHOMODE
 70
     0
  9
$REGENMODE
 70
     1
  9
$FILLMODE
 70
     1
  9
$QTEXTMODE
 70
     0
  9
$MIRRTEXT
 70
     1
  9
$LTSCALE
 40
1.0
  9
$ATTMODE
 70
     1
  9
$TEXTSIZE
 40
0.2
  9
$TRACEWID
 40
0.05
  9
$TEXTSTYLE
  7
Standard
  9
$CLAYER
  8
0
  9
$CELTYPE
  6
ByLayer
  9
$CECOLOR
 62
   256
  9
$CELTSCALE
 40
1.0
  9
$DISPSILH
 70
     0
  9
$DIMSCALE
 40
1.0
  9
$DIMASZ
 40
0.18
  9
$DIMEXO
 40
0.0625
  9
$DIMDLI
 40
0.38
  9
$DIMRND
 40
0.0
  9
$DIMDLE
 40
0.0
  9
$DIMEXE
 40
0.18
  9
$DIMTP
 40
0.0
  9
$DIMTM
 40
0.0
  9
$DIMTXT
 40
0.18
  9
$DIMCEN
 40
0.09
  9
$DIMTSZ
 40
0.0
  9
$DIMTOL
 70
     0
  9
$DIMLIM
 70
     0
  9
$DIMTIH
 70
     1
  9
$DIMTOH
 70
     1
  9
$DIMSE1
 70
     0
  9
$DIMSE2
 70
     0
  9
$DIMTAD
 70
     0
  9
$DIMZIN
 70
     0
  9
$DIMBLK
  1

  9
$DIMASO
 70
     1
  9
$DIMSHO
 70
     1
  9
$DIMPOST
  1

  9
$DIMAPOST
  1

  9
$DIMALT
 70
     0
  9
$DIMALTD
 70
     2
  9
$DIMALTF
 40
25.4
  9
$DIMLFAC
 40
1.0
  9
$DIMTOFL
 70
     0
  9
$DIMTVP
 40
0.0
  9
$DIMTIX
 70
     0
  9
$DIMSOXD
 70
     0
  9
$DIMSAH
 70
     0
  9
$DIMBLK1
  1

  9
$DIMBLK2
  1

  9
$DIMSTYLE
  2
Standard
  9
$DIMCLRD
 70
     0
  9
$DIMCLRE
 70
     0
  9
$DIMCLRT
 70
     0
  9
$DIMTFAC
 40
1.0
  9
$DIMGAP
 40
0.09
  9
$DIMJUST
 70
     0
  9
$DIMSD1
 70
     0
  9
$DIMSD2
 70
     0
  9
$DIMTOLJ
 70
     1
  9
$DIMTZIN
 70
     0
  9
$DIMALTZ
 70
     0
  9
$DIMALTTZ
 70
     0
  9
$DIMUPT
 70
     0
  9
$DIMDEC
 70
     4
  9
$DIMTDEC
 70
     4
  9
$DIMALTU
 70
     2
  9
$DIMALTTD
 70
     2
  9
$DIMTXSTY
  7
Standard
  9
$DIMAUNIT
 70
     0
  9
$DIMADEC
 70
     0
  9
$DIMALTRND
 40
0.0
  9
$DIMAZIN
 70
     0
  9
$DIMDSEP
 70
    46
  9
$DIMATFIT
 70
     3
  9
$DIMFRAC
 70
     0
  9
$DIMLDRBLK
  1

  9
$DIMLUNIT
 70
     2
  9
$DIMLWD
 70
    -2
  9
$DIMLWE
 70
    -2
  9
$DIMTMOVE
 70
     0
  9
$LUNITS
 70
     2
  9
$LUPREC
 70
     4
  9
$SKETCHINC
 40
0.1
  9
$FILLETRAD
 40
0.5
  9
$AUNITS
 70
     0
  9
$AUPREC
 70
     0
  9
$MENU
  1
.
  9
$ELEVATION
 40
0.0
  9
$PELEVATION
 40
0.0
  9
$THICKNESS
 40
0.0
  9
$LIMCHECK
 70
     0
  9
$CHAMFERA
 40
0.5
  9
$CHAMFERB
 40
0.5
  9
$CHAMFERC
 40
1.0
  9
$CHAMFERD
 40
0.0
  9
$SKPOLY
 70
     0
  9
$TDCREATE
 40
2456997.606657118
  9
$TDUCREATE
 40
2456997.564990452
  9
$TDUPDATE
 40
2456997.606657303
  9
$TDUUPDATE
 40
2456997.564990636
  9
$TDINDWG
 40
0.0000000116
  9
$TDUSRTIMER
 40
0.0000000116
  9
$USRTIMER
 70
     1
  9
$ANGBASE
 50
0.0
  9
$ANGDIR
 70
     0
  9
$PDMODE
 70
     0
  9
$PDSIZE
 40
0.0
  9
$PLINEWID
 40
0.0
  9
$SPLFRAME
 70
     0
  9
$SPLINETYPE
 70
     6
  9
$SPLINESEGS
 70
     8
  9
$HANDSEED
  5
3CF
  9
$SURFTAB1
 70
     6
  9
$SURFTAB2
 70
     6
  9
$SURFTYPE
 70
     6
  9
$SURFU
 70
     6
  9
$SURFV
 70
     6
  9
$UCSBASE
  2

  9
$UCSNAME
  2

  9
$UCSORG
 10
0.0
 20
0.0
 30
0.0
  9
$UCSXDIR
 10
1.0
 20
0.0
 30
0.0
  9
$UCSYDIR
 10
0.0
 20
1.0
 30
0.0
  9
$UCSORTHOREF
  2

  9
$UCSORTHOVIEW
 70
     0
  9
$UCSORGTOP
 10
0.0
 20
0.0
 30
0.0
  9
$UCSORGBOTTOM
 10
0.0
 20
0.0
 30
0.0
  9
$UCSORGLEFT
 10
0.0
 20
0.0
 30
0.0
  9
$UCSORGRIGHT
 10
0.0
 20
0.0
 30
0.0
  9
$UCSORGFRONT
 10
0.0
 20
0.0
 30
0.0
  9
$UCSORGBACK
 10
0.0
 20
0.0
 30
0.0
  9
$PUCSBASE
  2

  9
$PUCSNAME
  2

  9
$PUCSORG
 10
0.0
 20
0.0
 30
0.0
  9
$PUCSXDIR
 10
1.0
 20
0.0
 30
0.0
  9
$PUCSYDIR
 10
0.0
 20
1.0
 30
0.0
  9
$PUCSORTHOREF
  2

  9
$PUCSORTHOVIEW
 70
     0
  9
$PUCSORGTOP
 10
0.0
 20
0.0
 30
0.0
  9
$PUCSORGBOTTOM
 10
0.0
 20
0.0
 30
0.0
  9
$PUCSORGLEFT
 10
0.0
 20
0.0
 30
0.0
  9
$PUCSORGRIGHT
 10
0.0
 20
0.0
 30
0.0
  9
$PUCSORGFRONT
 10
0.0
 20
0.0
 30
0.0
  9
$PUCSORGBACK
 10
0.0
 20
0.0
 30
0.0
  9
$USERI1
 70
     0
  9
$USERI2
 70
     0
  9
$USERI3
 70
     0
  9
$USERI4
 70
     0
  9
$USERI5
 70
     0
  9
$USERR1
 40
18.1
  9
$USERR2
 40
0.0
  9
$USERR3
 40
0.0
  9
$USERR4
 40
0.0
  9
$USERR5
 40
0.0
  9
$WORLDVIEW
 70
     1
  9
$SHADEDGE
 70
     3
  9
$SHADEDIF
 70
    70
  9
$TILEMODE
 70
     1
  9
$MAXACTVP
 70
    64
  9
$PINSBASE
 10
0.0
 20
0.0
 30
0.0
  9
$PLIMCHECK
 70
     0
  9
$PEXTMIN
 10
1.00000000000000E+20
 20
1.00000000000000E+20
 30
1.00000000000000E+20
  9
$PEXTMAX
 10
-1.00000000000000E+20
 20
-1.00000000000000E+20
 30
-1.00000000000000E+20
  9
$PLIMMIN
 10
0.0
 20
0.0
  9
$PLIMMAX
 10
12.0
 20
9.0
  9
$UNITMODE
 70
     0
  9
$VISRETAIN
 70
     1
  9
$PLINEGEN
 70
     0
  9
$PSLTSCALE
 70
     1
  9
$TREEDEPTH
 70
  3020
  9
$CMLSTYLE
  2
Standard
  9
$CMLJUST
 70
     0
  9
$CMLSCALE
 40
1.0
  9
$PROXYGRAPHICS
 70
     1
  9
$MEASUREMENT
 70
     1
  9
$CELWEIGHT
370
    -1
  9
$ENDCAPS
280
     0
  9
$JOINSTYLE
280
     0
  9
$LWDISPLAY
290
     0
  9
$INSUNITS
 70
     4
  9
$HYPERLINKBASE
  1

  9
$STYLESHEET
  1

  9
$XEDIT
290
     1
  9
$CEPSNTYPE
380
     0
  9
$PSTYLEMODE
290
     1
  9
$FINGERPRINTGUID
  2
{A69F8852-E15B-4A27-AD1D-C7477DB79A42}
  9
$VERSIONGUID
  2
{FAEB1C32-E019-11D5-929B-00C0DF256EC4}
  9
$EXTNAMES
290
     1
  9
$PSVPSCALE
 40
0.0
  9
$OLESTARTUP
290
     0
  0
ENDSEC
  0
SECTION
  2
CLASSES
  0
CLASS
  1
ACDBDICTIONARYWDFLT
  2
AcDbDictionaryWithDefault
  3
ObjectDBX Classes
 90
        0
280
     0
281
     0
  0
CLASS
  1
VISUALSTYLE
  2
AcDbVisualStyle
  3
ObjectDBX Classes
 90
     4095
280
     0
281
     0
  0
CLASS
  1
MATERIAL
  2
AcDbMaterial
  3
ObjectDBX Classes
 90
     1153
280
     0
281
     0
  0
CLASS
  1
DICTIONARYVAR
  2
AcDbDictionaryVar
  3
ObjectDBX Classes
 90
        0
280
     0
281
     0
  0
CLASS
  1
ACDBPLACEHOLDER
  2
AcDbPlaceHolder
  3
ObjectDBX Classes
 90
        0
280
     0
281
     0
  0
CLASS
  1
LAYOUT
  2
AcDbLayout
  3
ObjectDBX Classes
 90
        0
280
     0
281
     0
  0
ENDSEC
  0
SECTION
  2
TABLES
  0
TABLE
  2
VPORT
  5
8
330
0
100
AcDbSymbolTable
 70
     1
  0
VPORT
  5
29
330
8
100
AcDbSymbolTableRecord
100
AcDbViewportTableRecord
  2
*Active
 70
     0
 10
0.0
 20
0.0
 11
1.0
 21
1.0
 12
143.3551065422052
 22
104.7654790621947
 13
0.0
 23
0.0
 14
0.5
 24
0.5
 15
0.5
 25
0.5
 16
0.0
 26
0.0
 36
1.0
 17
0.0
 27
0.0
 37
0.0
 40
231.0000000000003
 41
1.60267857142857
 42
50.0
 43
0.0
 44
0.0
 50
0.0
 51
0.0
 71
     0
 72
   100
 73
     1
 74
     3
 75
     0
 76
     0
 77
     0
 78
     0
281
     0
 65
     1
110
0.0
120
0.0
130
0.0
111
1.0
121
0.0
131
0.0
112
0.0
122
1.0
132
0.0
 79
     0
146
0.0
  0
ENDTAB
  0
TABLE
  2
LTYPE
  5
5
330
0
100
AcDbSymbolTable
 70
     8
  0
LTYPE
  5
14
330
5
100
AcDbSymbolTableRecord
100
AcDbLinetypeTableRecord
  2
ByBlock
 70
     0
  3

 72
    65
 73
     0
 40
0.0
  0
LTYPE
  5
15
330
5
100
AcDbSymbolTableRecord
100
AcDbLinetypeTableRecord
  2
ByLayer
 70
     0
  3

 72
    65
 73
     0
 40
0.0
  0
LTYPE
  5
16
330
5
100
AcDbSymbolTableRecord
100
AcDbLinetypeTableRecord
  2
Continuous
 70
     0
  3
Solid line
 72
    65
 73
     0
 40
0.0
  0
LTYPE
  5
3F
330
5
100
AcDbSymbolTableRecord
100
AcDbLinetypeTableRecord
  2
DASHED
 70
     0
  3
Dashed
 72
    65
 73
     2
 40
15.0
 49
7.0
 74
     0
 49
-8.0
 74
     0
  0
LTYPE
  5
40
330
5
100
AcDbSymbolTableRecord
100
AcDbLinetypeTableRecord
  2
DOTTED
 70
     0
  3
Dotted
 72
    65
 73
     2
 40
1.0
 49
0.0
 74
     0
 49
-1.0
 74
     0
  0
LTYPE
  5
41
330
5
100
AcDbSymbolTableRecord
100
AcDbLinetypeTableRecord
  2
DOT_CENTER
 70
     0
  3
Dot_Center
 72
    65
 73
     4
 40
14.0
 49
12.0
 74
     0
 49
-1.0
 74
     0
 49
0.0
 74
     0
 49
-1.0
 74
     0
  0
LTYPE
  5
42
330
5
100
AcDbSymbolTableRecord
100
AcDbLinetypeTableRecord
  2
LONG_DASHED
 70
     0
  3
Long_Dashed
 72
    65
 73
     2
 40
15.0
 49
10.0
 74
     0
 49
-5.0
 74
     0
  0
LTYPE
  5
43
330
5
100
AcDbSymbolTableRecord
100
AcDbLinetypeTableRecord
  2
DASH_CENTER
 70
     0
  3
Dash_Center
 72
    65
 73
     4
 40
14.0
 49
11.0
 74
     0
 49
-1.0
 74
     0
 49
1.0
 74
     0
 49
-1.0
 74
     0
  0
LTYPE
  5
44
330
5
100
AcDbSymbolTableRecord
100
AcDbLinetypeTableRecord
  2
PHANTOM
 70
     0
  3
Phantom
 72
    65
 73
     6
 40
13.0
 49
10.0
 74
     0
 49
-1.0
 74
     0
 49
0.0
 74
     0
 49
-1.0
 74
     0
 49
0.0
 74
     0
 49
-1.0
 74
     0
  0
LTYPE
  5
45
330
5
100
AcDbSymbolTableRecord
100
AcDbLinetypeTableRecord
  2
CENTER_DASH_DASH
 70
     0
  3
Center_Dash_Dash
 72
    65
 73
     6
 40
14.0
 49
9.0
 74
     0
 49
-1.0
 74
     0
 49
1.0
 74
     0
 49
-1.0
 74
     0
 49
1.0
 74
     0
 49
-1.0
 74
     0
  0
ENDTAB
  0
TABLE
  2
LAYER
  5
2
330
0
100
AcDbSymbolTable
 70
     2
  0
LAYER
  5
10
330
2
100
AcDbSymbolTableRecord
100
AcDbLayerTableRecord
  2
0
 70
     0
 62
     7
  6
Continuous
370
    -3
390
F
  0
LAYER
  5
46
330
2
100
AcDbSymbolTableRecord
100
AcDbLayerTableRecord
  2
1
 70
     0
 62
     7
  6
Continuous
370
    -3
390
F
  0
ENDTAB
  0
TABLE
  2
STYLE
  5
3
330
0
100
AcDbSymbolTable
 70
     4
  0
STYLE
  5
11
330
3
100
AcDbSymbolTableRecord
100
AcDbTextStyleTableRecord
  2
Standard
 70
     0
 40
0.0
 41
1.0
 50
0.0
 71
     0
 42
0.2
  3
txt
  4

  0
STYLE
  5
9B
330
3
100
AcDbSymbolTableRecord
100
AcDbTextStyleTableRecord
  2
CONVERTER_11
 70
     0
 40
0.0
 41
1.2
 50
0.0
 71
     0
 42
0.2
  3
ARIAL.TTF
  4

  0
STYLE
  5
A0
330
3
100
AcDbSymbolTableRecord
100
AcDbTextStyleTableRecord
  2
CONVERTER_12
 70
     0
 40
0.0
 41
1.38
 50
0.0
 71
     0
 42
0.2
  3
ARIAL.TTF
  4

  0
STYLE
  5
36A
330
3
100
AcDbSymbolTableRecord
100
AcDbTextStyleTableRecord
  2
CONVERTER_13
 70
     0
 40
0.0
 41
0.95
 50
0.0
 71
     0
 42
0.2
  3
simplex.shx
  4

  0
ENDTAB
  0
TABLE
  2
VIEW
  5
6
330
0
100
AcDbSymbolTable
 70
     0
  0
ENDTAB
  0
TABLE
  2
UCS
  5
7
330
0
100
AcDbSymbolTable
 70
     0
  0
ENDTAB
  0
TABLE
  2
APPID
  5
9
330
0
100
AcDbSymbolTable
 70
     1
  0
APPID
  5
12
330
9
100
AcDbSymbolTableRecord
100
AcDbRegAppTableRecord
  2
ACAD
 70
     0
  0
ENDTAB
  0
TABLE
  2
DIMSTYLE
  5
A
330
0
100
AcDbSymbolTable
 70
     6
100
AcDbDimStyleTable
  0
DIMSTYLE
105
27
330
A
100
AcDbSymbolTableRecord
100
AcDbDimStyleTableRecord
  2
Standard
 70
     0
178
     0
340
11
  0
DIMSTYLE
105
376
102
{ACAD_REACTORS
330
377
102
}
330
A
100
AcDbSymbolTableRecord
100
AcDbDimStyleTableRecord
  2
ME10_DIM_10
 70
     0
 41
3.0
 42
0.5
 44
1.0
 73
     0
 74
     0
 77
     1
 78
     8
140
3.0
147
2.0
172
     1
173
     1
174
     1
175
     1
176
     2
177
     2
271
     2
178
     4
271
     2
340
36A
  0
DIMSTYLE
105
381
102
{ACAD_REACTORS
330
382
102
}
330
A
100
AcDbSymbolTableRecord
100
AcDbDimStyleTableRecord
  2
ME10_DIM_11
 70
     0
 41
3.0
 42
0.5
 44
1.0
 73
     0
 74
     0
 77
     1
 78
     8
140
3.0
147
2.0
172
     1
173
     1
174
     1
175
     1
176
     2
177
     2
271
     2
178
     4
271
     2
340
36A
  0
DIMSTYLE
105
38C
102
{ACAD_REACTORS
330
38D
102
}
330
A
100
AcDbSymbolTableRecord
100
AcDbDimStyleTableRecord
  2
ME10_DIM_12
 70
     0
 41
3.0
 42
0.5
 44
1.0
 73
     0
 74
     0
 77
     1
 78
     8
140
3.0
147
2.0
172
     1
173
     1
174
     1
175
     1
176
     2
177
     2
271
     2
178
     4
271
     2
340
36A
  0
DIMSTYLE
105
397
102
{ACAD_REACTORS
330
398
102
}
330
A
100
AcDbSymbolTableRecord
100
AcDbDimStyleTableRecord
  2
ME10_DIM_13
 70
     0
 41
3.0
 42
0.5
 44
1.0
 73
     0
 74
     0
 77
     1
 78
     8
140
3.0
147
2.0
172
     1
173
     1
174
     1
175
     1
176
     2
177
     2
271
     2
178
     4
271
     2
340
36A
  0
DIMSTYLE
105
3A2
102
{ACAD_REACTORS
330
3A3
102
}
330
A
100
AcDbSymbolTableRecord
100
AcDbDimStyleTableRecord
  2
ME10_DIM_14
 70
     0
 41
3.0
 42
0.5
 44
1.0
 73
     0
 74
     0
 77
     1
 78
     8
140
3.0
147
2.0
172
     1
173
     1
174
     1
175
     1
176
     2
177
     2
271
     2
178
     4
271
     2
340
36A
  0
ENDTAB
  0
TABLE
  2
BLOCK_RECORD
  5
1
330
0
100
AcDbSymbolTable
 70
     8
  0
BLOCK_RECORD
  5
1F
330
1
100
AcDbSymbolTableRecord
100
AcDbBlockTableRecord
  2
*Model_Space
340
22
  0
BLOCK_RECORD
  5
1B
330
1
100
AcDbSymbolTableRecord
100
AcDbBlockTableRecord
  2
*Paper_Space
340
1E
  0
BLOCK_RECORD
  5
23
330
1
100
AcDbSymbolTableRecord
100
AcDbBlockTableRecord
  2
*Paper_Space0
340
26
  0
BLOCK_RECORD
  5
47
330
1
100
AcDbSymbolTableRecord
100
AcDbBlockTableRecord
  2
_formato_A4
340
0
102
{BLKREFS
331
4B
102
}
  0
BLOCK_RECORD
  5
4A
330
1
100
AcDbSymbolTableRecord
100
AcDbBlockTableRecord
  2
A4_oriz
340
0
102
{BLKREFS
331
4E
102
}
  0
BLOCK_RECORD
  5
36D
330
1
100
AcDbSymbolTableRecord
100
AcDbBlockTableRecord
  2
*D3
340
0
  0
BLOCK_RECORD
  5
378
330
1
100
AcDbSymbolTableRecord
100
AcDbBlockTableRecord
  2
*D4
340
0
  0
BLOCK_RECORD
  5
383
330
1
100
AcDbSymbolTableRecord
100
AcDbBlockTableRecord
  2
*D5
340
0
  0
BLOCK_RECORD
  5
38E
330
1
100
AcDbSymbolTableRecord
100
AcDbBlockTableRecord
  2
*D6
340
0
  0
BLOCK_RECORD
  5
399
330
1
100
AcDbSymbolTableRecord
100
AcDbBlockTableRecord
  2
*D7
340
0
  0
ENDTAB
  0
ENDSEC
  0
SECTION
  2
BLOCKS
  0
BLOCK
  5
20
330
1F
100
AcDbEntity
  8
0
100
AcDbBlockBegin
  2
*Model_Space
 70
     0
 10
0.0
 20
0.0
 30
0.0
  3
*Model_Space
  1

  0
ENDBLK
  5
21
330
1F
100
AcDbEntity
  8
0
100
AcDbBlockEnd
  0
BLOCK
  5
1C
330
1B
100
AcDbEntity
 67
     1
  8
0
100
AcDbBlockBegin
  2
*Paper_Space
 70
     0
 10
0.0
 20
0.0
 30
0.0
  3
*Paper_Space
  1

  0
ENDBLK
  5
1D
330
1B
100
AcDbEntity
 67
     1
  8
0
100
AcDbBlockEnd
  0
BLOCK
  5
24
330
23
100
AcDbEntity
  8
0
100
AcDbBlockBegin
  2
*Paper_Space0
 70
     0
 10
0.0
 20
0.0
 30
0.0
  3
*Paper_Space0
  1

  0
ENDBLK
  5
25
330
23
100
AcDbEntity
  8
0
100
AcDbBlockEnd
  0
BLOCK
  5
48
330
47
100
AcDbEntity
  8
0
100
AcDbBlockBegin
  2
_formato_A4
 70
     0
 10
-857.0458408438146
 20
25.32689400793408
 30
0.0
  3
_formato_A4
  1

  0
LINE
  5
4F
330
47
100
AcDbEntity
  8
1
  6
Continuous
 62
     7
100
AcDbLine
 10
-1046.045840843815
 20
35.32689400793394
 30
0.0
 11
-1016.045840843815
 21
35.32689400793394
 31
0.0
  0
LINE
  5
50
330
47
100
AcDbEntity
  8
1
  6
Continuous
 62
     7
100
AcDbLine
 10
-1046.045840843815
 20
40.32689400793397
 30
0.0
 11
-1016.045840843815
 21
40.32689400793397
 31
0.0
  0
LINE
  5
51
330
47
100
AcDbEntity
  8
1
  6
Continuous
 62
     7
100
AcDbLine
 10
-906.0458408438146
 20
45.32689400793407
 30
0.0
 11
-906.0458408438146
 21
30.32689400793408
 31
0.0
  0
LINE
  5
52
330
47
100
AcDbEntity
  8
1
  6
Continuous
 62
     7
100
AcDbLine
 10
-888.6932394663288
 20
45.32689400793407
 30
0.0
 11
-888.6932394663288
 21
30.32689400793408
 31
0.0
  0
LINE
  5
53
330
47
100
AcDbEntity
  8
1
  6
Continuous
 62
     7
100
AcDbLine
 10
-1016.045840843815
 20
45.32689400793407
 30
0.0
 11
-1016.045840843815
 21
30.32689400793408
 31
0.0
  0
LINE
  5
54
330
47
100
AcDbEntity
  8
1
  6
Continuous
 62
     7
100
AcDbLine
 10
-1005.545840843815
 20
235.3268940079343
 30
0.0
 11
-1005.545840843815
 21
220.3268940079343
 31
0.0
  0
LINE
  5
55
330
47
100
AcDbEntity
  8
1
  6
Continuous
 62
     7
100
AcDbLine
 10
-1154.045840843815
 20
25.32689400793408
 30
0.0
 11
-857.0458408438146
 21
25.32689400793408
 31
0.0
  0
LINE
  5
56
330
47
100
AcDbEntity
  8
1
  6
Continuous
 62
     7
100
AcDbLine
 10
-1154.045840843815
 20
235.3268940079343
 30
0.0
 11
-1154.045840843815
 21
25.32689400793408
 31
0.0
  0
LINE
  5
57
330
47
100
AcDbEntity
  8
1
  6
Continuous
 62
     7
100
AcDbLine
 10
-857.0458408438146
 20
235.3268940079343
 30
0.0
 11
-1154.045840843815
 21
235.3268940079343
 31
0.0
  0
LINE
  5
58
330
47
100
AcDbEntity
  8
1
  6
Continuous
 62
     7
100
AcDbLine
 10
-857.0458408438146
 20
25.32689400793408
 30
0.0
 11
-857.0458408438146
 21
235.3268940079343
 31
0.0
  0
LINE
  5
59
330
47
100
AcDbEntity
  8
1
  6
Continuous
 62
     7
100
AcDbLine
 10
-1149.045840843815
 20
30.32689400793408
 30
0.0
 11
-862.0458408438146
 21
30.32689400793408
 31
0.0
  0
LINE
  5
5A
330
47
100
AcDbEntity
  8
1
  6
Continuous
 62
     7
100
AcDbLine
 10
-862.0458408438146
 20
30.32689400793408
 30
0.0
 11
-862.0458408438146
 21
214.3268940079342
 31
0.0
  0
LINE
  5
5B
330
47
100
AcDbEntity
  8
1
  6
Continuous
 62
     7
100
AcDbLine
 10
-862.0458408438146
 20
214.3268940079342
 30
0.0
 11
-1149.045840843815
 21
214.3268940079342
 31
0.0
  0
LINE
  5
5C
102
{ACAD_REACTORS
330
A9
102
}
330
47
100
AcDbEntity
  8
1
  6
Continuous
 62
     7
100
AcDbLine
 10
-873.0362068217387
 20
35.40439384776671
 30
0.0
 11
-873.0362068217387
 21
40.24939416810145
 31
0.0
  0
LINE
  5
5D
102
{ACAD_REACTORS
330
A6
102
}
330
47
100
AcDbEntity
  8
1
  6
Continuous
 62
     7
100
AcDbLine
 10
-874.3695401550717
 20
37.82689400793407
 30
0.0
 11
-874.3695401550717
 21
39.55894481550291
 31
0.0
  0
LINE
  5
5E
102
{ACAD_REACTORS
330
A6
102
}
330
47
100
AcDbEntity
  8
1
  6
Continuous
 62
     7
100
AcDbLine
 10
-874.3695401550717
 20
39.55894481550291
 30
0.0
 11
-875.2252025877747
 21
38.07689400793407
 31
0.0
  0
LINE
  5
5F
102
{ACAD_REACTORS
330
A6
102
}
330
47
100
AcDbEntity
  8
1
  6
Continuous
 62
     7
100
AcDbLine
 10
-875.5138777223697
 20
38.07689400793407
 30
0.0
 11
-876.3695401550717
 21
39.55894481550291
 31
0.0
  0
LINE
  5
60
102
{ACAD_REACTORS
330
A6
102
}
330
47
100
AcDbEntity
  8
1
  6
Continuous
 62
     7
100
AcDbLine
 10
-876.3695401550717
 20
39.55894481550291
 30
0.0
 11
-876.3695401550717
 21
37.82689400793407
 31
0.0
  0
LINE
  5
61
330
47
100
AcDbEntity
  8
1
  6
Continuous
 62
     7
100
AcDbLine
 10
-883.7859754302137
 20
37.97125827227541
 30
0.0
 11
-875.3695401550717
 21
42.82689400793407
 31
0.0
  0
LINE
  5
62
330
47
100
AcDbEntity
  8
1
  6
Continuous
 62
     7
100
AcDbLine
 10
-875.3695401550717
 20
42.82689400793407
 30
0.0
 11
-866.9531048799308
 21
37.97125827227541
 31
0.0
  0
LINE
  5
63
330
47
100
AcDbEntity
  8
1
  6
Continuous
 62
     7
100
AcDbLine
 10
-866.9531048799308
 20
37.68252974359263
 30
0.0
 11
-875.3695401550717
 21
32.82689400793407
 31
0.0
  0
LINE
  5
64
330
47
100
AcDbEntity
  8
1
  6
Continuous
 62
     7
100
AcDbLine
 10
-875.3695401550717
 20
32.82689400793407
 30
0.0
 11
-883.7859754302137
 21
37.68252974359263
 31
0.0
  0
LINE
  5
65
102
{ACAD_REACTORS
330
A6
102
}
330
47
100
AcDbEntity
  8
1
  6
Continuous
 62
     7
100
AcDbLine
 10
-877.0362068217387
 20
37.82689400793407
 30
0.0
 11
-877.0362068217387
 21
41.05811131996865
 31
0.0
  0
LINE
  5
66
102
{ACAD_REACTORS
330
A6
102
}
330
47
100
AcDbEntity
  8
1
  6
Continuous
 62
     7
100
AcDbLine
 10
-876.5417731381158
 20
41.19059442620637
 30
0.0
 11
-875.3695401550717
 21
39.16022734126734
 31
0.0
  0
LINE
  5
67
102
{ACAD_REACTORS
330
A6
102
}
330
47
100
AcDbEntity
  8
1
  6
Continuous
 62
     7
100
AcDbLine
 10
-877.0362068217387
 20
37.82689400793407
 30
0.0
 11
-877.0362068217387
 21
36.17447908056698
 31
0.0
  0
LINE
  5
68
102
{ACAD_REACTORS
330
A6
102
}
330
47
100
AcDbEntity
  8
1
  6
Continuous
 62
     7
100
AcDbLine
 10
-876.3695401550717
 20
36.17447908056698
 30
0.0
 11
-876.3695401550717
 21
37.82689400793407
 31
0.0
  0
LINE
  5
69
102
{ACAD_REACTORS
330
A6
102
}
330
47
100
AcDbEntity
  8
1
  6
Continuous
 62
     7
100
AcDbLine
 10
-874.3695401550717
 20
37.82689400793407
 30
0.0
 11
-874.3695401550717
 21
34.63516307853588
 31
0.0
  0
LINE
  5
6A
102
{ACAD_REACTORS
330
A6
102
}
330
47
100
AcDbEntity
  8
1
  6
Continuous
 62
     7
100
AcDbLine
 10
-873.7028734884057
 20
34.63516307853588
 30
0.0
 11
-873.7028734884057
 21
41.05811131996865
 31
0.0
  0
LINE
  5
6B
102
{ACAD_REACTORS
330
A6
102
}
330
47
100
AcDbEntity
  8
1
  6
Continuous
 62
     7
100
AcDbLine
 10
-874.1973071720288
 20
41.19059442620637
 30
0.0
 11
-875.3695401550717
 21
39.16022734126734
 31
0.0
  0
LINE
  5
6C
102
{ACAD_REACTORS
330
A7
102
}
330
47
100
AcDbEntity
  8
1
  6
Continuous
 62
     7
100
AcDbLine
 10
-878.3695401550717
 20
35.59691515596666
 30
0.0
 11
-878.3695401550717
 21
40.24939416810145
 31
0.0
  0
LINE
  5
6D
102
{ACAD_REACTORS
330
A7
102
}
330
47
100
AcDbEntity
  8
1
  6
Continuous
 62
     7
100
AcDbLine
 10
-877.7028734884057
 20
40.24939416810145
 30
0.0
 11
-877.7028734884057
 21
35.59691515596678
 31
0.0
  0
LINE
  5
6E
102
{ACAD_REACTORS
330
A7
102
}
330
47
100
AcDbEntity
  8
1
  6
Continuous
 62
     7
100
AcDbLine
 10
-877.7028734884057
 20
35.59691515596678
 30
0.0
 11
-875.5362993372416
 21
34.34696853029568
 31
0.0
  0
LINE
  5
6F
102
{ACAD_REACTORS
330
A7
102
}
330
47
100
AcDbEntity
  8
1
  6
Continuous
 62
     7
100
AcDbLine
 10
-875.8694476395688
 20
33.76951147292989
 30
0.0
 11
-878.0360217907316
 21
35.01945809860099
 31
0.0
  0
LINE
  5
70
102
{ACAD_REACTORS
330
A8
102
}
330
47
100
AcDbEntity
  8
1
  6
Continuous
 62
     7
100
AcDbLine
 10
-879.0362068217387
 20
39.48016339887074
 30
0.0
 11
-879.0362068217387
 21
36.36614592519737
 31
0.0
  0
LINE
  5
71
102
{ACAD_REACTORS
330
A8
102
}
330
47
100
AcDbEntity
  8
1
  6
Continuous
 62
     7
100
AcDbLine
 10
-879.0362068217387
 20
36.36614592519737
 30
0.0
 11
-879.0362068217387
 21
36.17362461699731
 31
0.0
  0
LINE
  5
72
102
{ACAD_REACTORS
330
A8
102
}
330
47
100
AcDbEntity
  8
1
  6
Continuous
 62
     7
100
AcDbLine
 10
-879.7028734884057
 20
36.17362461699731
 30
0.0
 11
-879.7028734884057
 21
39.48016339887074
 31
0.0
  0
LINE
  5
73
102
{ACAD_REACTORS
330
A9
102
}
330
47
100
AcDbEntity
  8
1
  6
Continuous
 62
     7
100
AcDbLine
 10
-872.5362993372416
 20
40.53812269678434
 30
0.0
 11
-871.2029660039088
 21
39.76889192755352
 31
0.0
  0
LINE
  5
74
102
{ACAD_REACTORS
330
A9
102
}
330
47
100
AcDbEntity
  8
1
  6
Continuous
 62
     7
100
AcDbLine
 10
-871.5361143062348
 20
39.19143487018785
 30
0.0
 11
-872.3695401550717
 21
39.67225747528602
 31
0.0
  0
LINE
  5
75
102
{ACAD_REACTORS
330
A9
102
}
330
47
100
AcDbEntity
  8
1
  6
Continuous
 62
     7
100
AcDbLine
 10
-872.3695401550717
 20
39.67225747528602
 30
0.0
 11
-872.3695401550717
 21
38.16022734126734
 31
0.0
  0
LINE
  5
76
102
{ACAD_REACTORS
330
A9
102
}
330
47
100
AcDbEntity
  8
1
  6
Continuous
 62
     7
100
AcDbLine
 10
-872.3695401550717
 20
38.16022734126734
 30
0.0
 11
-871.3695401550717
 21
38.16022734126734
 31
0.0
  0
LINE
  5
77
102
{ACAD_REACTORS
330
A9
102
}
330
47
100
AcDbEntity
  8
1
  6
Continuous
 62
     7
100
AcDbLine
 10
-871.3695401550717
 20
37.49356067460071
 30
0.0
 11
-872.3695401550717
 21
37.49356067460071
 31
0.0
  0
LINE
  5
78
102
{ACAD_REACTORS
330
A9
102
}
330
47
100
AcDbEntity
  8
1
  6
Continuous
 62
     7
100
AcDbLine
 10
-872.3695401550717
 20
37.49356067460071
 30
0.0
 11
-872.3695401550717
 21
35.98153054058203
 31
0.0
  0
LINE
  5
79
102
{ACAD_REACTORS
330
A9
102
}
330
47
100
AcDbEntity
  8
1
  6
Continuous
 62
     7
100
AcDbLine
 10
-872.3695401550717
 20
35.98153054058203
 30
0.0
 11
-871.5361143062348
 21
36.46235314568032
 31
0.0
  0
LINE
  5
7A
102
{ACAD_REACTORS
330
A9
102
}
330
47
100
AcDbEntity
  8
1
  6
Continuous
 62
     7
100
AcDbLine
 10
-871.2029660039088
 20
35.88489608831441
 30
0.0
 11
-872.5362993372416
 21
35.11566531908382
 31
0.0
  0
LINE
  5
7B
330
47
100
AcDbEntity
  8
1
  6
Continuous
 62
     7
100
AcDbLine
 10
-1046.045840843815
 20
50.32689400793407
 30
0.0
 11
-862.0458408438146
 21
50.32689400793407
 31
0.0
  0
LINE
  5
7C
330
47
100
AcDbEntity
  8
1
  6
Continuous
 62
     7
100
AcDbLine
 10
-1039.045840843815
 20
45.32689400793407
 30
0.0
 11
-1039.045840843815
 21
50.32689400793407
 31
0.0
  0
LINE
  5
7D
330
47
100
AcDbEntity
  8
1
  6
Continuous
 62
     7
100
AcDbLine
 10
-1021.045840843815
 20
45.32689400793407
 30
0.0
 11
-1021.045840843815
 21
50.32689400793407
 31
0.0
  0
LINE
  5
7E
330
47
100
AcDbEntity
  8
1
  6
Continuous
 62
     7
100
AcDbLine
 10
-1046.045840843815
 20
55.32689400793407
 30
0.0
 11
-862.0458408438146
 21
55.32689400793407
 31
0.0
  0
LINE
  5
7F
330
47
100
AcDbEntity
  8
1
  6
Continuous
 62
     7
100
AcDbLine
 10
-1039.045840843815
 20
50.32689400793407
 30
0.0
 11
-1039.045840843815
 21
55.32689400793407
 31
0.0
  0
LINE
  5
80
330
47
100
AcDbEntity
  8
1
  6
Continuous
 62
     7
100
AcDbLine
 10
-1021.045840843815
 20
50.32689400793407
 30
0.0
 11
-1021.045840843815
 21
55.32689400793407
 31
0.0
  0
LINE
  5
81
330
47
100
AcDbEntity
  8
1
  6
Continuous
 62
     7
100
AcDbLine
 10
-1046.045840843815
 20
60.32689400793407
 30
0.0
 11
-862.0458408438146
 21
60.32689400793407
 31
0.0
  0
LINE
  5
82
330
47
100
AcDbEntity
  8
1
  6
Continuous
 62
     7
100
AcDbLine
 10
-1039.045840843815
 20
55.32689400793407
 30
0.0
 11
-1039.045840843815
 21
60.32689400793407
 31
0.0
  0
LINE
  5
83
330
47
100
AcDbEntity
  8
1
  6
Continuous
 62
     7
100
AcDbLine
 10
-1021.045840843815
 20
55.32689400793407
 30
0.0
 11
-1021.045840843815
 21
60.32689400793407
 31
0.0
  0
LINE
  5
84
330
47
100
AcDbEntity
  8
1
  6
Continuous
 62
     7
100
AcDbLine
 10
-1046.045840843815
 20
65.32689400793407
 30
0.0
 11
-862.0458408438146
 21
65.32689400793407
 31
0.0
  0
LINE
  5
85
330
47
100
AcDbEntity
  8
1
  6
Continuous
 62
     7
100
AcDbLine
 10
-1039.045840843815
 20
60.32689400793407
 30
0.0
 11
-1039.045840843815
 21
65.32689400793407
 31
0.0
  0
LINE
  5
86
330
47
100
AcDbEntity
  8
1
  6
Continuous
 62
     7
100
AcDbLine
 10
-1021.045840843815
 20
60.32689400793407
 30
0.0
 11
-1021.045840843815
 21
65.32689400793407
 31
0.0
  0
LINE
  5
87
330
47
100
AcDbEntity
  8
1
  6
Continuous
 62
     7
100
AcDbLine
 10
-1149.045840843815
 20
214.3268940079342
 30
0.0
 11
-1149.045840843815
 21
30.32689400793408
 31
0.0
  0
LINE
  5
88
330
47
100
AcDbEntity
  8
1
  6
Continuous
 62
     7
100
AcDbLine
 10
-1046.045840843815
 20
45.32689400793407
 30
0.0
 11
-862.0458408438146
 21
45.32689400793407
 31
0.0
  0
LINE
  5
89
330
47
100
AcDbEntity
  8
1
  6
Continuous
 62
     7
100
AcDbLine
 10
-1046.045840843815
 20
30.32689400793397
 30
0.0
 11
-1046.045840843815
 21
65.32689400793407
 31
0.0
  0
ARC
  5
8A
102
{ACAD_REACTORS
330
A6
102
}
330
47
100
AcDbEntity
  8
1
  6
Continuous
 62
     7
100
AcDbCircle
 10
-876.7712406092637
 20
41.05811131996865
 30
0.0
 40
0.264966212475135
100
AcDbArc
 50
30.00000000003666
 51
180.0
  0
ARC
  5
8B
102
{ACAD_REACTORS
330
A6
102
}
330
47
100
AcDbEntity
  8
1
  6
Continuous
 62
     7
100
AcDbCircle
 10
-876.7028734884057
 20
36.17447908056698
 30
0.0
 40
0.3333333333330302
100
AcDbArc
 50
180.0
 51
0.0
  0
ARC
  5
8C
102
{ACAD_REACTORS
330
A6
102
}
330
47
100
AcDbEntity
  8
1
  6
Continuous
 62
     7
100
AcDbCircle
 10
-874.0362068217387
 20
34.63516307853588
 30
0.0
 40
0.3333333333330302
100
AcDbArc
 50
180.0
 51
0.0
  0
ARC
  5
8D
102
{ACAD_REACTORS
330
A6
102
}
330
47
100
AcDbEntity
  8
1
  6
Continuous
 62
     7
100
AcDbCircle
 10
-873.9678397008806
 20
41.05811131996865
 30
0.0
 40
0.2649662124749739
100
AcDbArc
 50
0.0
 51
149.9999999999879
  0
ARC
  5
8E
102
{ACAD_REACTORS
330
A7
102
}
330
47
100
AcDbEntity
  8
1
  6
Continuous
 62
     7
100
AcDbCircle
 10
-878.0362068217387
 20
40.24939416810145
 30
0.0
 40
0.3333333333330302
100
AcDbArc
 50
0.0
 51
180.0
  0
ARC
  5
8F
102
{ACAD_REACTORS
330
A7
102
}
330
47
100
AcDbEntity
  8
1
  6
Continuous
 62
     7
100
AcDbCircle
 10
-875.7028734884057
 20
34.05824000161279
 30
0.0
 40
0.3333333333333141
100
AcDbArc
 50
240.0183606311663
 51
60.01836063103087
  0
ARC
  5
90
102
{ACAD_REACTORS
330
A8
102
}
330
47
100
AcDbEntity
  8
1
  6
Continuous
 62
     7
100
AcDbCircle
 10
-879.3695401550717
 20
39.48016339887074
 30
0.0
 40
0.3333333333330302
100
AcDbArc
 50
0.0
 51
180.0
  0
ARC
  5
91
102
{ACAD_REACTORS
330
A8
102
}
330
47
100
AcDbEntity
  8
1
  6
Continuous
 62
     7
100
AcDbCircle
 10
-879.3695401550717
 20
36.17362461699731
 30
0.0
 40
0.3333333333339397
100
AcDbArc
 50
180.0
 51
0.0
  0
ARC
  5
92
102
{ACAD_REACTORS
330
A9
102
}
330
47
100
AcDbEntity
  8
1
  6
Continuous
 62
     7
100
AcDbCircle
 10
-871.3695401550717
 20
39.48016339887074
 30
0.0
 40
0.3333333333333079
100
AcDbArc
 50
240.0183606311657
 51
60.01836063119038
  0
ARC
  5
93
102
{ACAD_REACTORS
330
A9
102
}
330
47
100
AcDbEntity
  8
1
  6
Continuous
 62
     7
100
AcDbCircle
 10
-871.3695401550717
 20
37.82689400793407
 30
0.0
 40
0.3333333333333641
100
AcDbArc
 50
270.0
 51
90.0
  0
ARC
  5
94
102
{ACAD_REACTORS
330
A9
102
}
330
47
100
AcDbEntity
  8
1
  6
Continuous
 62
     7
100
AcDbCircle
 10
-871.3695401550717
 20
36.17362461699731
 30
0.0
 40
0.3333333333332005
100
AcDbArc
 50
299.9816393687998
 51
119.9816393688239
  0
ARC
  5
95
102
{ACAD_REACTORS
330
A6
102
}
330
47
100
AcDbEntity
  8
1
  6
Continuous
 62
     7
100
AcDbCircle
 10
-875.3695401550717
 20
38.16022734126734
 30
0.0
 40
0.1666666666671054
100
AcDbArc
 50
209.9999999998856
 51
329.999999999958
  0
ARC
  5
96
102
{ACAD_REACTORS
330
A7
102
}
330
47
100
AcDbEntity
  8
1
  6
Continuous
 62
     7
100
AcDbCircle
 10
-877.7028734884057
 20
35.59691515596678
 30
0.0
 40
0.6666666666660603
100
AcDbArc
 50
180.0000000000097
 51
240.0183606311829
  0
ARC
  5
97
330
47
100
AcDbEntity
  8
1
  6
Continuous
 62
     7
100
AcDbCircle
 10
-883.7026883546318
 20
37.82689400793407
 30
0.0
 40
0.1666666666667352
100
AcDbArc
 50
119.9816393689536
 51
240.0183606310635
  0
ARC
  5
98
330
47
100
AcDbEntity
  8
1
  6
Continuous
 62
     7
100
AcDbCircle
 10
-867.0363919555118
 20
37.82689400793407
 30
0.0
 40
0.1666666666663668
100
AcDbArc
 50
299.9816393686656
 51
60.01836063131725
  0
ARC
  5
99
102
{ACAD_REACTORS
330
A9
102
}
330
47
100
AcDbEntity
  8
1
  6
Continuous
 62
     7
100
AcDbCircle
 10
-872.7028734884057
 20
40.24939416810145
 30
0.0
 40
0.3333333333337624
100
AcDbArc
 50
60.01836063103026
 51
180.0
  0
ARC
  5
9A
102
{ACAD_REACTORS
330
A9
102
}
330
47
100
AcDbEntity
  8
1
  6
Continuous
 62
     7
100
AcDbCircle
 10
-872.7028734884057
 20
35.40439384776671
 30
0.0
 40
0.3333333333330302
100
AcDbArc
 50
180.0
 51
299.9816393689691
  0
MTEXT
  5
9C
330
47
100
AcDbEntity
  8
1
 62
     7
100
AcDbMText
 10
-1034.445840843815
 20
32.82689400793396
 30
0.0
 40
3.0
 41
0.0
 71
     4
 72
     1
  1
Pezzimenti
  7
CONVERTER_11
 73
     1
 44
1.32052821128451
  0
MTEXT
  5
9D
330
47
100
AcDbEntity
  8
1
 62
     7
100
AcDbMText
 10
-1045.045840843815
 20
32.82689400793396
 30
0.0
 40
3.0
 41
0.0
 71
     4
 72
     1
  1
Sign.
  7
CONVERTER_11
 73
     1
 44
1.32052821128451
  0
MTEXT
  5
9E
330
47
100
AcDbEntity
  8
1
 62
     7
100
AcDbMText
 10
-1034.445840843815
 20
37.82689400793396
 30
0.0
 40
3.0
 41
0.0
 71
     4
 72
     1
  1
20/06/14
  7
CONVERTER_11
 73
     1
 44
1.32052821128451
  0
MTEXT
  5
9F
330
47
100
AcDbEntity
  8
1
 62
     7
100
AcDbMText
 10
-1045.045840843815
 20
37.82689400793396
 30
0.0
 40
3.0
 41
0.0
 71
     4
 72
     1
  1
Date
  7
CONVERTER_11
 73
     1
 44
1.32052821128451
  0
MTEXT
  5
A1
330
47
100
AcDbEntity
  8
1
 62
     7
100
AcDbMText
 10
-1031.045840843815
 20
42.82689400793402
 30
0.0
 40
2.5
 41
0.0
 71
     5
 72
     1
  1
dimensions in mm
  7
CONVERTER_12
 73
     1
 44
0.60024009603842
  0
MTEXT
  5
A2
330
47
100
AcDbEntity
  8
1
 62
     7
100
AcDbMText
 10
-1002.545840843815
 20
219.3268940079343
 30
0.0
 40
4.0
 41
0.0
 71
     5
 72
     1
  1
Diritti riservati      All rights reserved
  7
CONVERTER_11
 73
     1
 44
1.32052821128451
  0
MTEXT
  5
A3
330
47
100
AcDbEntity
  8
1
 62
     7
100
AcDbMText
 10
-1014.769540155072
 20
37.82689400793407
 30
0.0
 40
4.5
 41
0.0
 71
     4
 72
     1
  1
MHVN 06 LG25\PHood with lever, top entry M25 - LS TYPE
  7
CONVERTER_11
 73
     1
 44
0.90036014405762
  0
MTEXT
  5
A4
330
47
100
AcDbEntity
  8
1
 62
     7
100
AcDbMText
 10
-897.3695401550717
 20
41.58753342869006
 30
0.0
 40
3.0
 41
0.0
 71
     5
 72
     1
  1
Scale
  7
CONVERTER_11
 73
     1
 44
1.32052821128451
  0
MTEXT
  5
A5
330
47
100
AcDbEntity
  8
1
 62
     7
100
AcDbMText
 10
-897.3695401550717
 20
35.38753342869013
 30
0.0
 40
4.5
 41
0.0
 71
     5
 72
     1
  1
1:1
  7
CONVERTER_11
 73
     1
 44
1.32052821128451
  0
HATCH
  5
A6
330
47
100
AcDbEntity
  8
1
  6
Continuous
 62
     7
100
AcDbHatch
 10
0.0
 20
0.0
 30
0.0
210
0.0
220
0.0
230
1.0
  2
SOLID
 70
     1
 71
     1
 91
        1
 92
        1
 93
       16
 72
     2
 10
-876.7712406092637
 20
41.05811131996865
 40
0.264966212475135
 50
30.00000000003666
 51
180.0
 73
     1
 72
     1
 10
-877.0362068217387
 20
41.05811131996865
 11
-877.0362068217387
 21
37.82689400793407
 72
     1
 10
-877.0362068217387
 20
37.82689400793407
 11
-877.0362068217387
 21
36.17447908056698
 72
     2
 10
-876.7028734884057
 20
36.17447908056698
 40
0.3333333333330302
 50
180.0
 51
360.0
 73
     1
 72
     1
 10
-876.3695401550717
 20
36.17447908056698
 11
-876.3695401550717
 21
37.82689400793407
 72
     1
 10
-876.3695401550717
 20
37.82689400793407
 11
-876.3695401550717
 21
39.55894481550291
 72
     1
 10
-876.3695401550717
 20
39.55894481550291
 11
-875.5138777223697
 21
38.07689400793407
 72
     2
 10
-875.3695401550717
 20
38.16022734126734
 40
0.1666666666671054
 50
209.9999999998856
 51
329.999999999958
 73
     1
 72
     1
 10
-875.2252025877747
 20
38.07689400793407
 11
-874.3695401550717
 21
39.55894481550291
 72
     1
 10
-874.3695401550717
 20
39.55894481550291
 11
-874.3695401550717
 21
37.82689400793407
 72
     1
 10
-874.3695401550717
 20
37.82689400793407
 11
-874.3695401550717
 21
34.63516307853588
 72
     2
 10
-874.0362068217387
 20
34.63516307853588
 40
0.3333333333330302
 50
180.0
 51
360.0
 73
     1
 72
     1
 10
-873.7028734884057
 20
34.63516307853588
 11
-873.7028734884057
 21
41.05811131996865
 72
     2
 10
-873.9678397008806
 20
41.05811131996865
 40
0.2649662124749739
 50
0.0
 51
149.9999999999879
 73
     1
 72
     1
 10
-874.1973071720288
 20
41.19059442620637
 11
-875.3695401550717
 21
39.16022734126734
 72
     1
 10
-875.3695401550717
 20
39.16022734126734
 11
-876.5417731381158
 21
41.19059442620637
 97
       16
330
6B
330
8D
330
6A
330
8C
330
69
330
5D
330
5E
330
95
330
5F
330
60
330
68
330
8B
330
67
330
65
330
8A
330
66
 75
     0
 76
     1
 98
        1
 10
0.0
 20
0.0
  0
HATCH
  5
A7
330
47
100
AcDbEntity
  8
1
  6
Continuous
 62
     7
100
AcDbHatch
 10
0.0
 20
0.0
 30
0.0
210
0.0
220
0.0
230
1.0
  2
SOLID
 70
     1
 71
     1
 91
        1
 92
        1
 93
        7
 72
     1
 10
-877.7028734884057
 20
40.24939416810145
 11
-877.7028734884057
 21
35.59691515596678
 72
     1
 10
-877.7028734884057
 20
35.59691515596678
 11
-875.5362993372416
 21
34.34696853029568
 72
     2
 10
-875.7028734884057
 20
34.05824000161279
 40
0.3333333333333141
 50
299.9816393689691
 51
479.9816393688338
 73
     0
 72
     1
 10
-875.8694476395688
 20
33.76951147292989
 11
-878.0360217907316
 21
35.01945809860099
 72
     2
 10
-877.7028734884057
 20
35.59691515596678
 40
0.6666666666660603
 50
119.9816393688171
 51
179.9999999999902
 73
     0
 72
     1
 10
-878.3695401550717
 20
35.59691515596666
 11
-878.3695401550717
 21
40.24939416810145
 72
     2
 10
-878.0362068217387
 20
40.24939416810145
 40
0.3333333333330302
 50
180.0
 51
360.0
 73
     0
 97
        7
330
6D
330
6E
330
8F
330
6F
330
96
330
6C
330
8E
 75
     0
 76
     1
 98
        1
 10
0.0
 20
0.0
  0
HATCH
  5
A8
330
47
100
AcDbEntity
  8
1
  6
Continuous
 62
     7
100
AcDbHatch
 10
0.0
 20
0.0
 30
0.0
210
0.0
220
0.0
230
1.0
  2
SOLID
 70
     1
 71
     1
 91
        1
 92
        1
 93
        5
 72
     1
 10
-879.0362068217387
 20
39.48016339887074
 11
-879.0362068217387
 21
36.36614592519737
 72
     1
 10
-879.0362068217387
 20
36.36614592519737
 11
-879.0362068217387
 21
36.17362461699731
 72
     2
 10
-879.3695401550717
 20
36.17362461699731
 40
0.3333333333339397
 50
0.0
 51
180.0
 73
     0
 72
     1
 10
-879.7028734884057
 20
36.17362461699731
 11
-879.7028734884057
 21
39.48016339887074
 72
     2
 10
-879.3695401550717
 20
39.48016339887074
 40
0.3333333333330302
 50
180.0
 51
360.0
 73
     0
 97
        5
330
70
330
71
330
91
330
72
330
90
 75
     0
 76
     1
 98
        1
 10
0.0
 20
0.0
  0
HATCH
  5
A9
330
47
100
AcDbEntity
  8
1
  6
Continuous
 62
     7
100
AcDbHatch
 10
0.0
 20
0.0
 30
0.0
210
0.0
220
0.0
230
1.0
  2
SOLID
 70
     1
 71
     1
 91
        1
 92
        1
 93
       14
 72
     1
 10
-871.5361143062348
 20
39.19143487018785
 11
-872.3695401550717
 21
39.67225747528602
 72
     1
 10
-872.3695401550717
 20
39.67225747528602
 11
-872.3695401550717
 21
38.16022734126734
 72
     1
 10
-872.3695401550717
 20
38.16022734126734
 11
-871.3695401550717
 21
38.16022734126734
 72
     2
 10
-871.3695401550717
 20
37.82689400793407
 40
0.3333333333333641
 50
270.0
 51
450.0
 73
     0
 72
     1
 10
-871.3695401550717
 20
37.49356067460071
 11
-872.3695401550717
 21
37.49356067460071
 72
     1
 10
-872.3695401550717
 20
37.49356067460071
 11
-872.3695401550717
 21
35.98153054058203
 72
     1
 10
-872.3695401550717
 20
35.98153054058203
 11
-871.5361143062348
 21
36.46235314568032
 72
     2
 10
-871.3695401550717
 20
36.17362461699731
 40
0.3333333333332005
 50
240.0183606311761
 51
420.0183606312001
 73
     0
 72
     1
 10
-871.2029660039088
 20
35.88489608831441
 11
-872.5362993372416
 21
35.11566531908382
 72
     2
 10
-872.7028734884057
 20
35.40439384776671
 40
0.3333333333330302
 50
60.01836063103086
 51
180.0
 73
     0
 72
     1
 10
-873.0362068217387
 20
35.40439384776671
 11
-873.0362068217387
 21
40.24939416810145
 72
     2
 10
-872.7028734884057
 20
40.24939416810145
 40
0.3333333333337624
 50
180.0
 51
299.9816393689698
 73
     0
 72
     1
 10
-872.5362993372416
 20
40.53812269678434
 11
-871.2029660039088
 21
39.76889192755352
 72
     2
 10
-871.3695401550717
 20
39.48016339887074
 40
0.3333333333333079
 50
299.9816393688097
 51
479.9816393688344
 73
     0
 97
       14
330
73
330
99
330
5C
330
9A
330
7A
330
94
330
79
330
78
330
77
330
93
330
76
330
75
330
74
330
92
 75
     0
 76
     1
 98
        1
 10
0.0
 20
0.0
  0
ENDBLK
  5
49
330
47
100
AcDbEntity
  8
0
100
AcDbBlockEnd
  0
BLOCK
  5
4C
330
4A
100
AcDbEntity
  8
0
100
AcDbBlockBegin
  2
A4_oriz
 70
     0
 10
291.8551065422054
 20
-0.23452093780543
 30
0.0
  3
A4_oriz
  1

  0
INSERT
  5
4B
330
4A
100
AcDbEntity
  8
1
100
AcDbBlockReference
  2
_formato_A4
 10
291.8551065422055
 20
-0.23452093780543
 30
0.0
  0
ENDBLK
  5
4D
330
4A
100
AcDbEntity
  8
0
100
AcDbBlockEnd
  0
BLOCK
  5
374
330
36D
100
AcDbEntity
  8
0
100
AcDbBlockBegin
  2
*D3
 70
     1
 10
0.0
 20
0.0
 30
0.0
  3
*D3
  1

  0
LINE
  5
36E
330
36D
100
AcDbEntity
  8
1
  6
Continuous
 62
     2
100
AcDbLine
 10
169.795121489579
 20
97.28963412711495
 30
0.0
 11
169.795121489579
 21
155.2896341271146
 31
0.0
  0
LINE
  5
36F
330
36D
100
AcDbEntity
  8
1
  6
Continuous
 62
     2
100
AcDbLine
 10
183.7152487015599
 20
155.2896341271146
 30
0.0
 11
168.795121489579
 21
155.2896341271146
 31
0.0
  0
LINE
  5
370
330
36D
100
AcDbEntity
  8
1
  6
Continuous
 62
     2
100
AcDbLine
 10
186.2152487015665
 20
97.28963412711495
 30
0.0
 11
168.795121489579
 21
97.28963412711495
 31
0.0
  0
SOLID
  5
371
330
36D
100
AcDbEntity
  8
1
 62
     2
100
AcDbTrace
 10
169.4001639968168
 20
100.289634127115
 30
0.0
 11
170.1900789823412
 21
100.289634127115
 31
0.0
 12
169.795121489579
 22
97.28963412711495
 32
0.0
 13
169.795121489579
 23
97.28963412711495
 33
0.0
  0
SOLID
  5
372
330
36D
100
AcDbEntity
  8
1
 62
     2
100
AcDbTrace
 10
170.1900789823412
 20
152.2896341271146
 30
0.0
 11
169.4001639968168
 21
152.2896341271146
 31
0.0
 12
169.795121489579
 22
155.2896341271146
 32
0.0
 13
169.795121489579
 23
155.2896341271146
 33
0.0
  0
MTEXT
  5
373
330
36D
100
AcDbEntity
  8
1
 62
     4
100
AcDbMText
 10
167.795121489579
 20
124.0396341271148
 30
0.0
 40
3.0
 41
0.0
 71
     7
 72
     1
  1
58
  7
CONVERTER_13
 11
0.0
 21
1.0
 31
0.0
 73
     1
 44
0.60024009603842
  0
ENDBLK
  5
375
330
36D
100
AcDbEntity
  8
0
100
AcDbBlockEnd
  0
BLOCK
  5
37F
330
378
100
AcDbEntity
  8
0
100
AcDbBlockBegin
  2
*D4
 70
     1
 10
0.0
 20
0.0
 30
0.0
  3
*D4
  1

  0
LINE
  5
379
330
378
100
AcDbEntity
  8
1
  6
Continuous
 62
     2
100
AcDbLine
 10
137.914248279888
 20
60.1483719894317
 30
0.0
 11
62.914248279888
 21
60.1483719894317
 31
0.0
  0
LINE
  5
37A
330
378
100
AcDbEntity
  8
1
  6
Continuous
 62
     2
100
AcDbLine
 10
62.914248279888
 20
79.28222330685887
 30
0.0
 11
62.914248279888
 21
59.1483719894317
 31
0.0
  0
LINE
  5
37B
330
378
100
AcDbEntity
  8
1
  6
Continuous
 62
     2
100
AcDbLine
 10
137.914248279888
 20
79.28222330685895
 30
0.0
 11
137.914248279888
 21
59.1483719894317
 31
0.0
  0
SOLID
  5
37C
330
378
100
AcDbEntity
  8
1
 62
     2
100
AcDbTrace
 10
134.914248279888
 20
59.75341449666951
 30
0.0
 11
134.914248279888
 21
60.54332948219389
 31
0.0
 12
137.914248279888
 22
60.1483719894317
 32
0.0
 13
137.914248279888
 23
60.1483719894317
 33
0.0
  0
SOLID
  5
37D
330
378
100
AcDbEntity
  8
1
 62
     2
100
AcDbTrace
 10
65.914248279888
 20
60.54332948219389
 30
0.0
 11
65.914248279888
 21
59.75341449666951
 31
0.0
 12
62.914248279888
 22
60.1483719894317
 32
0.0
 13
62.914248279888
 23
60.1483719894317
 33
0.0
  0
MTEXT
  5
37E
330
378
100
AcDbEntity
  8
1
 62
     4
100
AcDbMText
 10
98.164248279888
 20
62.1483719894317
 30
0.0
 40
3.0
 41
0.0
 71
     7
 72
     1
  1
75
  7
CONVERTER_13
 11
0.9999999999970619
 21
2.424068405545306E-6
 31
0.0
 73
     1
 44
0.60024009603842
  0
ENDBLK
  5
380
330
378
100
AcDbEntity
  8
0
100
AcDbBlockEnd
  0
BLOCK
  5
38A
330
383
100
AcDbEntity
  8
0
100
AcDbBlockBegin
  2
*D5
 70
     1
 10
0.0
 20
0.0
 30
0.0
  3
*D5
  1

  0
LINE
  5
384
330
383
100
AcDbEntity
  8
1
  6
Continuous
 62
     2
100
AcDbLine
 10
87.914248279888
 20
165.978925597866
 30
0.0
 11
112.914248279888
 21
165.978925597866
 31
0.0
  0
LINE
  5
385
330
383
100
AcDbEntity
  8
1
  6
Continuous
 62
     2
100
AcDbLine
 10
112.914248279888
 20
155.7896341271166
 30
0.0
 11
112.914248279888
 21
166.978925597866
 31
0.0
  0
LINE
  5
386
330
383
100
AcDbEntity
  8
1
  6
Continuous
 62
     2
100
AcDbLine
 10
87.914248279888
 20
155.8896341271173
 30
0.0
 11
87.914248279888
 21
166.978925597866
 31
0.0
  0
SOLID
  5
387
330
383
100
AcDbEntity
  8
1
 62
     2
100
AcDbTrace
 10
90.914248279888
 20
166.3738830906282
 30
0.0
 11
90.914248279888
 21
165.5839681051038
 31
0.0
 12
87.914248279888
 22
165.978925597866
 32
0.0
 13
87.914248279888
 23
165.978925597866
 33
0.0
  0
SOLID
  5
388
330
383
100
AcDbEntity
  8
1
 62
     2
100
AcDbTrace
 10
109.914248279888
 20
165.5839681051038
 30
0.0
 11
109.914248279888
 21
166.3738830906282
 31
0.0
 12
112.914248279888
 22
165.978925597866
 32
0.0
 13
112.914248279888
 23
165.978925597866
 33
0.0
  0
MTEXT
  5
389
330
383
100
AcDbEntity
  8
1
 62
     4
100
AcDbMText
 10
96.514248279888
 20
167.978925597866
 30
0.0
 40
3.0
 41
0.0
 71
     7
 72
     1
  1
M25
  7
CONVERTER_13
 11
0.9999999999970619
 21
2.424068405545306E-6
 31
0.0
 73
     1
 44
0.60024009603842
  0
ENDBLK
  5
38B
330
383
100
AcDbEntity
  8
0
100
AcDbBlockEnd
  0
BLOCK
  5
395
330
38E
100
AcDbEntity
  8
0
100
AcDbBlockBegin
  2
*D6
 70
     1
 10
0.0
 20
0.0
 30
0.0
  3
*D6
  1

  0
LINE
  5
38F
330
38E
100
AcDbEntity
  8
1
  6
Continuous
 62
     2
100
AcDbLine
 10
223.7152487015617
 20
175.45380766943
 30
0.0
 11
180.7152487015617
 21
175.45380766943
 31
0.0
  0
LINE
  5
390
330
38E
100
AcDbEntity
  8
1
  6
Continuous
 62
     2
100
AcDbLine
 10
180.7152487015617
 20
139.7896341271143
 30
0.0
 11
180.7152487015617
 21
176.45380766943
 31
0.0
  0
LINE
  5
391
330
38E
100
AcDbEntity
  8
1
  6
Continuous
 62
     2
100
AcDbLine
 10
223.7152487015617
 20
139.7896341271191
 30
0.0
 11
223.7152487015617
 21
176.45380766943
 31
0.0
  0
SOLID
  5
392
330
38E
100
AcDbEntity
  8
1
 62
     2
100
AcDbTrace
 10
220.7152487015617
 20
175.0588501766678
 30
0.0
 11
220.7152487015617
 21
175.8487651621922
 31
0.0
 12
223.7152487015617
 22
175.45380766943
 32
0.0
 13
223.7152487015617
 23
175.45380766943
 33
0.0
  0
SOLID
  5
393
330
38E
100
AcDbEntity
  8
1
 62
     2
100
AcDbTrace
 10
183.7152487015617
 20
175.8487651621922
 30
0.0
 11
183.7152487015617
 21
175.0588501766678
 31
0.0
 12
180.7152487015617
 22
175.45380766943
 32
0.0
 13
180.7152487015617
 23
175.45380766943
 33
0.0
  0
MTEXT
  5
394
330
38E
100
AcDbEntity
  8
1
 62
     4
100
AcDbMText
 10
199.9652487015617
 20
177.45380766943
 30
0.0
 40
3.0
 41
0.0
 71
     7
 72
     1
  1
43
  7
CONVERTER_13
 11
0.9999999999970619
 21
2.424068405545306E-6
 31
0.0
 73
     1
 44
0.60024009603842
  0
ENDBLK
  5
396
330
38E
100
AcDbEntity
  8
0
100
AcDbBlockEnd
  0
BLOCK
  5
3A0
330
399
100
AcDbEntity
  8
0
100
AcDbBlockBegin
  2
*D7
 70
     1
 10
0.0
 20
0.0
 30
0.0
  3
*D7
  1

  0
LINE
  5
39A
330
399
100
AcDbEntity
  8
1
  6
Continuous
 62
     2
100
AcDbLine
 10
180.7142487015664
 20
60.1483719894317
 30
0.0
 11
242.5018826557512
 21
60.1483719894317
 31
0.0
  0
LINE
  5
39B
330
399
100
AcDbEntity
  8
1
  6
Continuous
 62
     2
100
AcDbLine
 10
242.5018826557512
 20
104.2896341271166
 30
0.0
 11
242.5018826557512
 21
59.1483719894317
 31
0.0
  0
LINE
  5
39C
330
399
100
AcDbEntity
  8
1
  6
Continuous
 62
     2
100
AcDbLine
 10
180.7142487015664
 20
96.78963412711425
 30
0.0
 11
180.7142487015664
 21
59.1483719894317
 31
0.0
  0
SOLID
  5
39D
330
399
100
AcDbEntity
  8
1
 62
     2
100
AcDbTrace
 10
183.7142487015664
 20
60.54332948219389
 30
0.0
 11
183.7142487015664
 21
59.75341449666951
 31
0.0
 12
180.7142487015664
 22
60.1483719894317
 32
0.0
 13
180.7142487015664
 23
60.1483719894317
 33
0.0
  0
SOLID
  5
39E
330
399
100
AcDbEntity
  8
1
 62
     2
100
AcDbTrace
 10
239.5018826557512
 20
59.75341449666951
 30
0.0
 11
239.5018826557512
 21
60.54332948219389
 31
0.0
 12
242.5018826557512
 22
60.1483719894317
 32
0.0
 13
242.5018826557512
 23
60.1483719894317
 33
0.0
  0
MTEXT
  5
39F
330
399
100
AcDbEntity
  8
1
 62
     4
100
AcDbMText
 10
209.3580656786588
 20
62.1483719894317
 30
0.0
 40
3.0
 41
0.0
 71
     7
 72
     1
  1
63
  7
CONVERTER_13
 11
0.9999999999970619
 21
2.424068405545306E-6
 31
0.0
 73
     1
 44
0.60024009603842
  0
ENDBLK
  5
3A1
330
399
100
AcDbEntity
  8
0
100
AcDbBlockEnd
  0
ENDSEC
  0
SECTION
  2
ENTITIES
  0
INSERT
  5
4E
330
1F
100
AcDbEntity
  8
0
100
AcDbBlockReference
  2
A4_oriz
 10
291.8551065422054
 20
-0.23452093780543
 30
0.0
  0
LINE
  5
AA
330
1F
100
AcDbEntity
  8
0
  6
Continuous
 62
     7
100
AcDbLine
 10
112.914248279888
 20
155.2896341271166
 30
0.0
 11
100.414248279888
 21
155.2896341271188
 31
0.0
  0
LINE
  5
AB
330
1F
100
AcDbEntity
  8
1
  6
DASHED
 62
     2
100
AcDbLine
 10
112.914248279888
 20
155.2896341271166
 30
0.0
 11
112.914248279888
 21
155.3896341271173
 31
0.0
  0
LINE
  5
AC
330
1F
100
AcDbEntity
  8
0
  6
Continuous
 62
     7
100
AcDbLine
 10
87.91424827988797
 20
155.2896341271166
 30
0.0
 11
82.41424827988797
 21
155.2896341271166
 31
0.0
  0
LINE
  5
AD
330
1F
100
AcDbEntity
  8
1
  6
DASHED
 62
     2
100
AcDbLine
 10
87.91424827988797
 20
155.2896341271166
 30
0.0
 11
87.91424827988797
 21
155.3896341271173
 31
0.0
  0
LINE
  5
AE
330
1F
100
AcDbEntity
  8
1
  6
Continuous
 62
     7
100
AcDbLine
 10
230.2539695299126
 20
79.78222330685887
 30
0.0
 11
197.4540089400309
 21
79.78222330685887
 31
0.0
  0
LINE
  5
AF
330
1F
100
AcDbEntity
  8
1
  6
Continuous
 62
     7
100
AcDbLine
 10
230.2539695299126
 20
79.83306917298177
 30
0.0
 11
230.2539695299126
 21
79.78222330685887
 31
0.0
  0
LINE
  5
B0
330
1F
100
AcDbEntity
  8
0
  6
Continuous
 62
     7
100
AcDbLine
 10
106.9146928849141
 20
126.5396341271191
 30
0.0
 11
100.414248279888
 21
122.7910444048875
 31
0.0
  0
LINE
  5
B1
330
1F
100
AcDbEntity
  8
0
  6
Continuous
 62
     7
100
AcDbLine
 10
76.41424827988797
 20
142.2896341271188
 30
0.0
 11
82.41424827988797
 21
142.2896341271166
 31
0.0
  0
LINE
  5
B2
330
1F
100
AcDbEntity
  8
0
  6
Continuous
 62
     7
100
AcDbLine
 10
71.11424827957384
 20
112.8396341268044
 30
0.0
 11
70.41424828020209
 21
113.5396341274326
 31
0.0
  0
LINE
  5
B3
330
1F
100
AcDbEntity
  8
0
  6
Continuous
 62
     7
100
AcDbLine
 10
71.11424827957384
 20
115.2396341274326
 30
0.0
 11
70.41424827988797
 21
114.5396341271185
 31
0.0
  0
LINE
  5
B4
330
1F
100
AcDbEntity
  8
0
  6
Continuous
 62
     7
100
AcDbLine
 10
71.11424827957384
 20
112.7396341274326
 30
0.0
 11
70.41424827988797
 21
112.0396341271185
 31
0.0
  0
LINE
  5
B5
330
1F
100
AcDbEntity
  8
0
  6
Continuous
 62
     7
100
AcDbLine
 10
70.41424827988797
 20
112.0396341271185
 30
0.0
 11
76.41424827988797
 21
112.0396341271191
 31
0.0
  0
LINE
  5
B6
330
1F
100
AcDbEntity
  8
0
  6
Continuous
 62
     7
100
AcDbLine
 10
76.41424827988797
 20
111.0396341271191
 30
0.0
 11
70.41424828020209
 21
111.0396341274326
 31
0.0
  0
LINE
  5
B7
330
1F
100
AcDbEntity
  8
0
  6
Continuous
 62
     7
100
AcDbLine
 10
71.11424827957384
 20
112.8396341268044
 30
0.0
 11
76.41424827988797
 21
112.8396341271191
 31
0.0
  0
LINE
  5
B8
330
1F
100
AcDbEntity
  8
0
  6
Continuous
 62
     7
100
AcDbLine
 10
76.41424827988797
 20
112.7396341271191
 30
0.0
 11
71.11424827957384
 21
112.7396341274326
 31
0.0
  0
LINE
  5
B9
330
1F
100
AcDbEntity
  8
0
  6
Continuous
 62
     7
100
AcDbLine
 10
71.11424827957384
 20
112.8396341268044
 30
0.0
 11
71.11424827957384
 21
112.7396341274326
 31
0.0
  0
LINE
  5
BA
330
1F
100
AcDbEntity
  8
0
  6
Continuous
 62
     7
100
AcDbLine
 10
76.41424827988797
 20
113.5396341271191
 30
0.0
 11
70.41424828020209
 21
113.5396341274326
 31
0.0
  0
LINE
  5
BB
330
1F
100
AcDbEntity
  8
0
  6
Continuous
 62
     7
100
AcDbLine
 10
71.11424827957384
 20
115.3396341268044
 30
0.0
 11
76.41424827988797
 21
115.3396341271191
 31
0.0
  0
LINE
  5
BC
330
1F
100
AcDbEntity
  8
0
  6
Continuous
 62
     7
100
AcDbLine
 10
70.41424827988797
 20
114.5396341271185
 30
0.0
 11
76.41424827988797
 21
114.5396341271191
 31
0.0
  0
LINE
  5
BD
330
1F
100
AcDbEntity
  8
0
  6
Continuous
 62
     7
100
AcDbLine
 10
70.41424828020209
 20
113.5396341274326
 30
0.0
 11
70.41424827988797
 21
114.5396341271185
 31
0.0
  0
LINE
  5
BE
330
1F
100
AcDbEntity
  8
0
  6
Continuous
 62
     7
100
AcDbLine
 10
76.41424827988797
 20
115.2396341271191
 30
0.0
 11
71.11424827957384
 21
115.2396341274326
 31
0.0
  0
LINE
  5
BF
330
1F
100
AcDbEntity
  8
0
  6
Continuous
 62
     7
100
AcDbLine
 10
76.41424827988797
 20
116.0396341271191
 30
0.0
 11
70.41424827988797
 21
116.0396341271185
 31
0.0
  0
LINE
  5
C0
330
1F
100
AcDbEntity
  8
0
  6
Continuous
 62
     7
100
AcDbLine
 10
71.11424827957384
 20
115.3396341268044
 30
0.0
 11
70.41424827988797
 21
116.0396341271185
 31
0.0
  0
LINE
  5
C1
330
1F
100
AcDbEntity
  8
0
  6
Continuous
 62
     7
100
AcDbLine
 10
71.11424827957384
 20
115.3396341268044
 30
0.0
 11
71.11424827957384
 21
115.2396341274326
 31
0.0
  0
LINE
  5
C2
330
1F
100
AcDbEntity
  8
0
  6
Continuous
 62
     7
100
AcDbLine
 10
70.41424827988797
 20
116.0396341271185
 30
0.0
 11
70.41424827988797
 21
114.5396341271185
 31
0.0
  0
LINE
  5
C3
330
1F
100
AcDbEntity
  8
0
  6
Continuous
 62
     7
100
AcDbLine
 10
70.41424827988797
 20
116.0396341271185
 30
0.0
 11
70.41424827988797
 21
139.2896341271185
 31
0.0
  0
LINE
  5
C4
330
1F
100
AcDbEntity
  8
0
  6
Continuous
 62
     7
100
AcDbLine
 10
76.41424827988797
 20
102.2896341271191
 30
0.0
 11
70.41424827988797
 21
102.2896341271185
 31
0.0
  0
LINE
  5
C5
330
1F
100
AcDbEntity
  8
0
  6
Continuous
 62
     7
100
AcDbLine
 10
76.41424827988797
 20
97.28963412711457
 30
0.0
 11
70.413248279888
 21
97.28963412711846
 31
0.0
  0
LINE
  5
C6
330
1F
100
AcDbEntity
  8
0
  6
Continuous
 62
     7
100
AcDbLine
 10
100.414248279888
 20
122.7910444048875
 30
0.0
 11
93.91380367486184
 21
126.5396341271191
 31
0.0
  0
LINE
  5
C7
330
1F
100
AcDbEntity
  8
0
  6
Continuous
 62
     7
100
AcDbLine
 10
93.91380367486184
 20
126.5396341271191
 30
0.0
 11
100.414248279888
 21
130.2882238493509
 31
0.0
  0
LINE
  5
C8
330
1F
100
AcDbEntity
  8
0
  6
Continuous
 62
     7
100
AcDbLine
 10
129.714248280202
 20
115.2396341274326
 30
0.0
 11
130.414248279888
 21
114.5396341271185
 31
0.0
  0
LINE
  5
C9
330
1F
100
AcDbEntity
  8
0
  6
Continuous
 62
     7
100
AcDbLine
 10
129.714248280202
 20
115.3396341268044
 30
0.0
 11
130.4142482795739
 21
116.0396341274326
 31
0.0
  0
LINE
  5
CA
330
1F
100
AcDbEntity
  8
0
  6
Continuous
 62
     7
100
AcDbLine
 10
124.414248279888
 20
114.5396341271191
 30
0.0
 11
130.414248279888
 21
114.5396341271185
 31
0.0
  0
LINE
  5
CB
330
1F
100
AcDbEntity
  8
0
  6
Continuous
 62
     7
100
AcDbLine
 10
129.714248280202
 20
112.7396341274326
 30
0.0
 11
130.414248279888
 21
112.0396341271185
 31
0.0
  0
LINE
  5
CC
330
1F
100
AcDbEntity
  8
0
  6
Continuous
 62
     7
100
AcDbLine
 10
129.714248280202
 20
112.8396341268044
 30
0.0
 11
130.4142482795739
 21
113.5396341274326
 31
0.0
  0
LINE
  5
CD
330
1F
100
AcDbEntity
  8
0
  6
Continuous
 62
     7
100
AcDbLine
 10
124.414248279888
 20
112.0396341271191
 30
0.0
 11
130.414248279888
 21
112.0396341271185
 31
0.0
  0
LINE
  5
CE
330
1F
100
AcDbEntity
  8
0
  6
Continuous
 62
     7
100
AcDbLine
 10
130.4142482795739
 20
111.0396341274326
 30
0.0
 11
124.414248279888
 21
111.0396341271191
 31
0.0
  0
LINE
  5
CF
330
1F
100
AcDbEntity
  8
0
  6
Continuous
 62
     7
100
AcDbLine
 10
124.414248279888
 20
112.8396341271191
 30
0.0
 11
129.714248280202
 21
112.8396341268044
 31
0.0
  0
LINE
  5
D0
330
1F
100
AcDbEntity
  8
0
  6
Continuous
 62
     7
100
AcDbLine
 10
129.714248280202
 20
112.7396341274326
 30
0.0
 11
124.414248279888
 21
112.7396341271191
 31
0.0
  0
LINE
  5
D1
330
1F
100
AcDbEntity
  8
0
  6
Continuous
 62
     7
100
AcDbLine
 10
129.714248280202
 20
112.8396341268044
 30
0.0
 11
129.714248280202
 21
112.7396341274326
 31
0.0
  0
LINE
  5
D2
330
1F
100
AcDbEntity
  8
0
  6
Continuous
 62
     7
100
AcDbLine
 10
130.414248279888
 20
112.0396341271185
 30
0.0
 11
130.4142482795739
 21
113.5396341274326
 31
0.0
  0
LINE
  5
D3
330
1F
100
AcDbEntity
  8
0
  6
Continuous
 62
     7
100
AcDbLine
 10
130.4142482795739
 20
113.5396341274326
 30
0.0
 11
124.414248279888
 21
113.5396341271191
 31
0.0
  0
LINE
  5
D4
330
1F
100
AcDbEntity
  8
0
  6
Continuous
 62
     7
100
AcDbLine
 10
130.414248279888
 20
114.5396341271185
 30
0.0
 11
130.4142482795739
 21
113.5396341274326
 31
0.0
  0
LINE
  5
D5
330
1F
100
AcDbEntity
  8
0
  6
Continuous
 62
     7
100
AcDbLine
 10
129.714248280202
 20
115.2396341274326
 30
0.0
 11
124.414248279888
 21
115.2396341271191
 31
0.0
  0
LINE
  5
D6
330
1F
100
AcDbEntity
  8
0
  6
Continuous
 62
     7
100
AcDbLine
 10
124.414248279888
 20
115.3396341271191
 30
0.0
 11
129.714248280202
 21
115.3396341268044
 31
0.0
  0
LINE
  5
D7
330
1F
100
AcDbEntity
  8
0
  6
Continuous
 62
     7
100
AcDbLine
 10
129.714248280202
 20
115.3396341268044
 30
0.0
 11
129.714248280202
 21
115.2396341274326
 31
0.0
  0
LINE
  5
D8
330
1F
100
AcDbEntity
  8
0
  6
Continuous
 62
     7
100
AcDbLine
 10
130.414248279888
 20
114.5396341271185
 30
0.0
 11
130.4142482795739
 21
116.0396341274326
 31
0.0
  0
LINE
  5
D9
330
1F
100
AcDbEntity
  8
0
  6
Continuous
 62
     7
100
AcDbLine
 10
130.4142482795739
 20
116.0396341274326
 30
0.0
 11
124.414248279888
 21
116.0396341271191
 31
0.0
  0
LINE
  5
DA
330
1F
100
AcDbEntity
  8
0
  6
Continuous
 62
     7
100
AcDbLine
 10
130.414248279888
 20
139.2896341271185
 30
0.0
 11
130.4142482795739
 21
116.0396341274326
 31
0.0
  0
LINE
  5
DB
330
1F
100
AcDbEntity
  8
0
  6
Continuous
 62
     7
100
AcDbLine
 10
100.414248279888
 20
129.9996341271192
 30
0.0
 11
94.41424827988797
 21
126.5396341271191
 31
0.0
  0
LINE
  5
DC
330
1F
100
AcDbEntity
  8
0
  6
Continuous
 62
     7
100
AcDbLine
 10
99.61457897493486
 20
128.8221922403468
 30
0.0
 11
100.414248279888
 21
127.7510476284415
 31
0.0
  0
LINE
  5
DD
330
1F
100
AcDbEntity
  8
0
  6
Continuous
 62
     7
100
AcDbLine
 10
100.414248279888
 20
126.915251804899
 30
0.0
 11
99.66424827988797
 21
127.919865154384
 31
0.0
  0
LINE
  5
DE
330
1F
100
AcDbEntity
  8
0
  6
Continuous
 62
     7
100
AcDbLine
 10
100.414248279888
 20
123.0796341271192
 30
0.0
 11
106.414248279888
 21
126.5396341271191
 31
0.0
  0
LINE
  5
DF
330
1F
100
AcDbEntity
  8
0
  6
Continuous
 62
     7
100
AcDbLine
 10
100.2893593323954
 20
123.6133969757439
 30
0.0
 11
98.28935933239543
 21
124.7667303090773
 31
0.0
  0
LINE
  5
E0
330
1F
100
AcDbEntity
  8
0
  6
Continuous
 62
     7
100
AcDbLine
 10
98.66424827988797
 20
125.12772379382
 30
0.0
 11
100.5391372273805
 21
124.0465378340994
 31
0.0
  0
LINE
  5
E1
330
1F
100
AcDbEntity
  8
0
  6
Continuous
 62
     7
100
AcDbLine
 10
103.5391372273805
 20
125.3433969757438
 30
0.0
 11
102.5391372273805
 21
124.7667303090773
 31
0.0
  0
LINE
  5
E2
330
1F
100
AcDbEntity
  8
0
  6
Continuous
 62
     7
100
AcDbLine
 10
102.664248279888
 20
125.4160571271534
 30
0.0
 11
103.2893593323954
 21
125.7765378340993
 31
0.0
  0
LINE
  5
E3
330
1F
100
AcDbEntity
  8
0
  6
Continuous
 62
     7
100
AcDbLine
 10
102.664248279888
 20
126.7896341271191
 30
0.0
 11
103.414248279888
 21
126.7896341271191
 31
0.0
  0
LINE
  5
E4
330
1F
100
AcDbEntity
  8
0
  6
Continuous
 62
     7
100
AcDbLine
 10
103.414248279888
 20
126.2896341271191
 30
0.0
 11
102.664248279888
 21
126.2896341271191
 31
0.0
  0
LINE
  5
E5
330
1F
100
AcDbEntity
  8
0
  6
Continuous
 62
     7
100
AcDbLine
 10
101.164248279888
 20
127.919865154384
 30
0.0
 11
100.414248279888
 21
126.915251804899
 31
0.0
  0
LINE
  5
E6
330
1F
100
AcDbEntity
  8
0
  6
Continuous
 62
     7
100
AcDbLine
 10
98.66424827988797
 20
128.0959675159834
 30
0.0
 11
98.66424827988797
 21
125.12772379382
 31
0.0
  0
LINE
  5
E7
330
1F
100
AcDbEntity
  8
0
  6
Continuous
 62
     7
100
AcDbLine
 10
98.16424827988797
 20
124.983300738255
 30
0.0
 11
98.16424827988797
 21
128.0959675159834
 31
0.0
  0
LINE
  5
E8
330
1F
100
AcDbEntity
  8
0
  6
Continuous
 62
     7
100
AcDbLine
 10
99.66424827988797
 20
127.919865154384
 30
0.0
 11
99.66424827988797
 21
125.5496341271192
 31
0.0
  0
LINE
  5
E9
330
1F
100
AcDbEntity
  8
0
  6
Continuous
 62
     7
100
AcDbLine
 10
99.16424827988797
 20
125.5496341271192
 30
0.0
 11
99.16424827988797
 21
128.6726341826501
 31
0.0
  0
LINE
  5
EA
330
1F
100
AcDbEntity
  8
0
  6
Continuous
 62
     7
100
AcDbLine
 10
103.2893593323954
 20
127.3027304201389
 30
0.0
 11
102.664248279888
 21
127.663211127085
 31
0.0
  0
LINE
  5
EB
330
1F
100
AcDbEntity
  8
0
  6
Continuous
 62
     7
100
AcDbLine
 10
101.664248279888
 20
128.6726341826501
 30
0.0
 11
101.664248279888
 21
124.4066340715883
 31
0.0
  0
LINE
  5
EC
330
1F
100
AcDbEntity
  8
0
  6
Continuous
 62
     7
100
AcDbLine
 10
94.41424827988797
 20
126.5396341271191
 30
0.0
 11
100.414248279888
 21
123.0796341271192
 31
0.0
  0
LINE
  5
ED
330
1F
100
AcDbEntity
  8
0
  6
Continuous
 62
     7
100
AcDbLine
 10
102.664248279888
 20
126.2896341271191
 30
0.0
 11
102.664248279888
 21
125.4160571271534
 31
0.0
  0
LINE
  5
EE
330
1F
100
AcDbEntity
  8
0
  6
Continuous
 62
     7
100
AcDbLine
 10
102.664248279888
 20
127.663211127085
 30
0.0
 11
102.664248279888
 21
126.7896341271191
 31
0.0
  0
LINE
  5
EF
330
1F
100
AcDbEntity
  8
0
  6
Continuous
 62
     7
100
AcDbLine
 10
97.16424827988797
 20
125.5496341271192
 30
0.0
 11
97.16424827988797
 21
127.5296341271192
 31
0.0
  0
LINE
  5
F0
330
1F
100
AcDbEntity
  8
0
  6
Continuous
 62
     7
100
AcDbLine
 10
97.66424827988797
 20
127.5296341271192
 30
0.0
 11
97.66424827988797
 21
125.5496341271192
 31
0.0
  0
LINE
  5
F1
330
1F
100
AcDbEntity
  8
0
  6
Continuous
 62
     7
100
AcDbLine
 10
102.164248279888
 20
124.983300738255
 30
0.0
 11
102.164248279888
 21
128.0959675159834
 31
0.0
  0
LINE
  5
F2
330
1F
100
AcDbEntity
  8
0
  6
Continuous
 62
     7
100
AcDbLine
 10
101.164248279888
 20
124.4066340715883
 30
0.0
 11
101.164248279888
 21
127.919865154384
 31
0.0
  0
LINE
  5
F3
330
1F
100
AcDbEntity
  8
0
  6
Continuous
 62
     7
100
AcDbLine
 10
100.414248279888
 20
130.2882238493509
 30
0.0
 11
106.9146928849141
 21
126.5396341271191
 31
0.0
  0
LINE
  5
F4
330
1F
100
AcDbEntity
  8
0
  6
Continuous
 62
     7
100
AcDbLine
 10
106.414248279888
 20
126.5396341271191
 30
0.0
 11
100.414248279888
 21
129.9996341271192
 31
0.0
  0
LINE
  5
F5
330
1F
100
AcDbEntity
  8
0
  6
Continuous
 62
     7
100
AcDbLine
 10
100.414248279888
 20
127.7510476284415
 30
0.0
 11
101.2139175848411
 21
128.8221922403468
 31
0.0
  0
LINE
  5
F6
330
1F
100
AcDbEntity
  8
0
  6
Continuous
 62
     7
100
AcDbLine
 10
102.5391372273805
 20
128.3125379451611
 30
0.0
 11
103.5391372273805
 21
127.7358712784944
 31
0.0
  0
LINE
  5
F7
330
1F
100
AcDbEntity
  8
0
  6
Continuous
 62
     7
100
AcDbLine
 10
76.41424827988797
 20
114.5396341271191
 30
0.0
 11
124.414248279888
 21
114.5396341271191
 31
0.0
  0
LINE
  5
F8
330
1F
100
AcDbEntity
  8
0
  6
Continuous
 62
     7
100
AcDbLine
 10
124.414248279888
 20
113.5396341271191
 30
0.0
 11
76.41424827988797
 21
113.5396341271191
 31
0.0
  0
LINE
  5
F9
330
1F
100
AcDbEntity
  8
0
  6
Continuous
 62
     7
100
AcDbLine
 10
82.41424827988797
 20
142.2896341271166
 30
0.0
 11
118.414248279888
 21
142.2896341271166
 31
0.0
  0
LINE
  5
FA
330
1F
100
AcDbEntity
  8
0
  6
Continuous
 62
     7
100
AcDbLine
 10
118.414248279888
 20
142.2896341271166
 30
0.0
 11
124.414248279888
 21
142.2896341271188
 31
0.0
  0
LINE
  5
FB
330
1F
100
AcDbEntity
  8
0
  6
Continuous
 62
     7
100
AcDbLine
 10
124.414248279888
 20
116.0396341271191
 30
0.0
 11
76.41424827988797
 21
116.0396341271191
 31
0.0
  0
LINE
  5
FC
330
1F
100
AcDbEntity
  8
0
  6
Continuous
 62
     7
100
AcDbLine
 10
76.41424827988797
 20
115.3396341271191
 30
0.0
 11
124.414248279888
 21
115.3396341271191
 31
0.0
  0
LINE
  5
FD
330
1F
100
AcDbEntity
  8
0
  6
Continuous
 62
     7
100
AcDbLine
 10
76.41424827988797
 20
112.8396341271191
 30
0.0
 11
124.414248279888
 21
112.8396341271191
 31
0.0
  0
LINE
  5
FE
330
1F
100
AcDbEntity
  8
0
  6
Continuous
 62
     7
100
AcDbLine
 10
124.414248279888
 20
142.2896341271188
 30
0.0
 11
127.4142482929115
 21
142.2896341016603
 31
0.0
  0
LINE
  5
FF
330
1F
100
AcDbEntity
  8
0
  6
Continuous
 62
     7
100
AcDbLine
 10
124.414248279888
 20
115.2396341271191
 30
0.0
 11
76.41424827988797
 21
115.2396341271191
 31
0.0
  0
LINE
  5
100
330
1F
100
AcDbEntity
  8
0
  6
Continuous
 62
     7
100
AcDbLine
 10
76.41424827988797
 20
112.0396341271191
 30
0.0
 11
124.414248279888
 21
112.0396341271191
 31
0.0
  0
LINE
  5
101
330
1F
100
AcDbEntity
  8
0
  6
Continuous
 62
     7
100
AcDbLine
 10
124.414248279888
 20
112.7396341271191
 30
0.0
 11
76.41424827988797
 21
112.7396341271191
 31
0.0
  0
LINE
  5
102
330
1F
100
AcDbEntity
  8
0
  6
Continuous
 62
     7
100
AcDbLine
 10
100.414248279888
 20
155.2896341271188
 30
0.0
 11
87.91424827988797
 21
155.2896341271166
 31
0.0
  0
LINE
  5
103
330
1F
100
AcDbEntity
  8
0
  6
Continuous
 62
     7
100
AcDbLine
 10
73.41424829771185
 20
142.2896340989864
 30
0.0
 11
76.41424827988797
 21
142.2896341271188
 31
0.0
  0
LINE
  5
104
330
1F
100
AcDbEntity
  8
0
  6
Continuous
 62
     7
100
AcDbLine
 10
76.41424827988797
 20
110.2396341271191
 30
0.0
 11
71.1142482795739
 21
110.2396341274326
 31
0.0
  0
LINE
  5
105
330
1F
100
AcDbEntity
  8
0
  6
Continuous
 62
     7
100
AcDbLine
 10
71.11424827957384
 20
110.3396341268044
 30
0.0
 11
76.41424827988797
 21
110.3396341271191
 31
0.0
  0
LINE
  5
106
330
1F
100
AcDbEntity
  8
0
  6
Continuous
 62
     7
100
AcDbLine
 10
82.41424827988797
 20
155.2896341271166
 30
0.0
 11
82.41424827988797
 21
142.2896341271166
 31
0.0
  0
LINE
  5
107
330
1F
100
AcDbEntity
  8
0
  6
Continuous
 62
     7
100
AcDbLine
 10
124.414248279888
 20
111.0396341271191
 30
0.0
 11
76.41424827988797
 21
111.0396341271191
 31
0.0
  0
LINE
  5
108
330
1F
100
AcDbEntity
  8
0
  6
Continuous
 62
     7
100
AcDbLine
 10
124.414248279888
 20
102.2896341271146
 30
0.0
 11
76.41424827988797
 21
102.2896341271191
 31
0.0
  0
LINE
  5
109
330
1F
100
AcDbEntity
  8
0
  6
Continuous
 62
     7
100
AcDbLine
 10
76.41424827988797
 20
110.3396341271191
 30
0.0
 11
124.414248279888
 21
110.3396341271191
 31
0.0
  0
LINE
  5
10A
330
1F
100
AcDbEntity
  8
0
  6
Continuous
 62
     7
100
AcDbLine
 10
124.414248279888
 20
110.2396341271191
 30
0.0
 11
76.41424827988797
 21
110.2396341271191
 31
0.0
  0
LINE
  5
10B
330
1F
100
AcDbEntity
  8
0
  6
Continuous
 62
     7
100
AcDbLine
 10
124.414248279888
 20
109.5396341271191
 30
0.0
 11
130.414248279888
 21
109.5396341271185
 31
0.0
  0
LINE
  5
10C
330
1F
100
AcDbEntity
  8
0
  6
Continuous
 62
     7
100
AcDbLine
 10
70.41424827988797
 20
109.5396341271185
 30
0.0
 11
76.41424827988797
 21
109.5396341271191
 31
0.0
  0
LINE
  5
10D
330
1F
100
AcDbEntity
  8
0
  6
Continuous
 62
     7
100
AcDbLine
 10
130.4142482798881
 20
108.7896341271166
 30
0.0
 11
130.414248279888
 21
107.2896341271166
 31
0.0
  0
LINE
  5
10E
330
1F
100
AcDbEntity
  8
0
  6
Continuous
 62
     7
100
AcDbLine
 10
130.414248279888
 20
109.5396341271185
 30
0.0
 11
130.4142482798881
 21
108.7896341271166
 31
0.0
  0
LINE
  5
10F
330
1F
100
AcDbEntity
  8
0
  6
Continuous
 62
     7
100
AcDbLine
 10
130.414248279888
 20
107.2896341271166
 30
0.0
 11
130.4142482798881
 21
102.8503956461317
 31
0.0
  0
LINE
  5
110
330
1F
100
AcDbEntity
  8
0
  6
Continuous
 62
     7
100
AcDbLine
 10
130.414248279888
 20
109.5396341271185
 30
0.0
 11
130.4142482795739
 21
111.0396341274326
 31
0.0
  0
LINE
  5
111
330
1F
100
AcDbEntity
  8
0
  6
Continuous
 62
     7
100
AcDbLine
 10
124.414248279888
 20
97.28963412711457
 30
0.0
 11
76.41424827988797
 21
97.28963412711457
 31
0.0
  0
LINE
  5
112
330
1F
100
AcDbEntity
  8
0
  6
Continuous
 62
     7
100
AcDbLine
 10
76.41424827988797
 20
109.5396341271191
 30
0.0
 11
124.414248279888
 21
109.5396341271191
 31
0.0
  0
LINE
  5
113
330
1F
100
AcDbEntity
  8
0
  6
Continuous
 62
     7
100
AcDbLine
 10
130.414248279888
 20
112.0396341271185
 30
0.0
 11
130.4142482795739
 21
111.0396341274326
 31
0.0
  0
LINE
  5
114
330
1F
100
AcDbEntity
  8
0
  6
Continuous
 62
     7
100
AcDbLine
 10
129.714248280202
 20
110.3396341268044
 30
0.0
 11
130.4142482795739
 21
111.0396341274326
 31
0.0
  0
LINE
  5
115
330
1F
100
AcDbEntity
  8
0
  6
Continuous
 62
     7
100
AcDbLine
 10
129.714248280202
 20
110.2396341274326
 30
0.0
 11
130.414248279888
 21
109.5396341271185
 31
0.0
  0
LINE
  5
116
330
1F
100
AcDbEntity
  8
0
  6
Continuous
 62
     7
100
AcDbLine
 10
129.714248280202
 20
110.2396341274326
 30
0.0
 11
124.414248279888
 21
110.2396341271191
 31
0.0
  0
LINE
  5
117
330
1F
100
AcDbEntity
  8
0
  6
Continuous
 62
     7
100
AcDbLine
 10
124.414248279888
 20
110.3396341271191
 30
0.0
 11
129.714248280202
 21
110.3396341268044
 31
0.0
  0
LINE
  5
118
330
1F
100
AcDbEntity
  8
0
  6
Continuous
 62
     7
100
AcDbLine
 10
129.714248280202
 20
110.3396341268044
 30
0.0
 11
129.714248280202
 21
110.2396341274326
 31
0.0
  0
LINE
  5
119
330
1F
100
AcDbEntity
  8
0
  6
Continuous
 62
     7
100
AcDbLine
 10
130.415248279888
 20
97.28963412711846
 30
0.0
 11
130.4142482798881
 21
100.7896341271168
 31
0.0
  0
LINE
  5
11A
330
1F
100
AcDbEntity
  8
0
  6
Continuous
 62
     7
100
AcDbLine
 10
130.415248279888
 20
97.28963412711846
 30
0.0
 11
124.414248279888
 21
97.28963412711457
 31
0.0
  0
LINE
  5
11B
330
1F
100
AcDbEntity
  8
0
  6
Continuous
 62
     7
100
AcDbLine
 10
130.4142482798881
 20
102.8503956461317
 30
0.0
 11
130.414248279888
 21
102.2896341271185
 31
0.0
  0
LINE
  5
11C
330
1F
100
AcDbEntity
  8
0
  6
Continuous
 62
     7
100
AcDbLine
 10
130.414248279888
 20
102.2896341271185
 30
0.0
 11
124.414248279888
 21
102.2896341271146
 31
0.0
  0
LINE
  5
11D
330
1F
100
AcDbEntity
  8
0
  6
Continuous
 62
     7
100
AcDbLine
 10
130.4142482798881
 20
100.7896341271168
 30
0.0
 11
130.414248279888
 21
102.2896341271185
 31
0.0
  0
LINE
  5
11E
330
1F
100
AcDbEntity
  8
0
  6
Continuous
 62
     7
100
AcDbLine
 10
118.414248279888
 20
155.2896341271166
 30
0.0
 11
112.914248279888
 21
155.2896341271166
 31
0.0
  0
LINE
  5
11F
330
1F
100
AcDbEntity
  8
0
  6
Continuous
 62
     7
100
AcDbLine
 10
118.414248279888
 20
155.2896341271166
 30
0.0
 11
118.414248279888
 21
142.2896341271166
 31
0.0
  0
LINE
  5
120
330
1F
100
AcDbEntity
  8
0
  6
Continuous
 62
     7
100
AcDbLine
 10
70.413248279888
 20
97.28963412711846
 30
0.0
 11
70.41424827988797
 21
102.2896341271185
 31
0.0
  0
LINE
  5
121
330
1F
100
AcDbEntity
  8
0
  6
Continuous
 62
     7
100
AcDbLine
 10
70.41424828020209
 20
111.0396341274326
 30
0.0
 11
70.41424827988797
 21
109.5396341271185
 31
0.0
  0
LINE
  5
122
330
1F
100
AcDbEntity
  8
0
  6
Continuous
 62
     7
100
AcDbLine
 10
71.1142482795739
 20
110.2396341274326
 30
0.0
 11
70.41424827988797
 21
109.5396341271185
 31
0.0
  0
LINE
  5
123
330
1F
100
AcDbEntity
  8
0
  6
Continuous
 62
     7
100
AcDbLine
 10
71.11424827957384
 20
110.3396341268044
 30
0.0
 11
70.41424828020209
 21
111.0396341274326
 31
0.0
  0
LINE
  5
124
330
1F
100
AcDbEntity
  8
0
  6
Continuous
 62
     7
100
AcDbLine
 10
70.41424827988797
 20
102.2896341271185
 30
0.0
 11
70.41424827988797
 21
109.5396341271185
 31
0.0
  0
LINE
  5
125
330
1F
100
AcDbEntity
  8
0
  6
Continuous
 62
     7
100
AcDbLine
 10
71.11424827957384
 20
110.3396341268044
 30
0.0
 11
71.1142482795739
 21
110.2396341274326
 31
0.0
  0
LINE
  5
126
330
1F
100
AcDbEntity
  8
0
  6
Continuous
 62
     7
100
AcDbLine
 10
70.41424828020209
 20
111.0396341274326
 30
0.0
 11
70.41424827988797
 21
112.0396341271185
 31
0.0
  0
LINE
  5
127
330
1F
100
AcDbEntity
  8
0
  6
Continuous
 62
     7
100
AcDbLine
 10
70.41424828020209
 20
113.5396341274326
 30
0.0
 11
70.41424827988797
 21
112.0396341271185
 31
0.0
  0
LINE
  5
128
330
1F
100
AcDbEntity
  8
0
  6
Continuous
 62
     7
100
AcDbLine
 10
130.4142482798881
 20
108.7896341271166
 30
0.0
 11
130.414248279888
 21
107.2896341271166
 31
0.0
  0
LINE
  5
129
330
1F
100
AcDbEntity
  8
0
  6
Continuous
 62
     7
100
AcDbLine
 10
130.414248279888
 20
107.2896341271166
 30
0.0
 11
130.4142482798881
 21
102.8503956461317
 31
0.0
  0
LINE
  5
12A
330
1F
100
AcDbEntity
  8
0
  6
Continuous
 62
     7
100
AcDbLine
 10
102.3483716816736
 20
83.09204393546466
 30
0.0
 11
101.8287564394032
 21
83.09204393546506
 31
0.0
  0
LINE
  5
12B
330
1F
100
AcDbEntity
  8
0
  6
Continuous
 62
     7
100
AcDbLine
 10
107.429054050542
 20
88.69400542567476
 30
0.0
 11
107.429054050542
 21
86.79375677555785
 31
0.0
  0
LINE
  5
12C
330
1F
100
AcDbEntity
  8
0
  6
Continuous
 62
     7
100
AcDbLine
 10
107.4290540505421
 20
85.89428197570876
 30
0.0
 11
107.4290540505425
 21
83.99280536791426
 31
0.0
  0
LINE
  5
12D
330
1F
100
AcDbEntity
  8
0
  6
Continuous
 62
     7
100
AcDbLine
 10
106.8517037813517
 20
90.59203492400616
 30
0.0
 11
107.4290540505422
 21
90.59276531513297
 31
0.0
  0
LINE
  5
12E
330
1F
100
AcDbEntity
  8
0
  6
Continuous
 62
     7
100
AcDbLine
 10
107.9290540505425
 20
85.64542351022476
 30
0.0
 11
107.9290540505425
 21
85.62821137613685
 31
0.0
  0
LINE
  5
12F
330
1F
100
AcDbEntity
  8
0
  6
Continuous
 62
     7
100
AcDbLine
 10
107.9290540505425
 20
84.68026455455455
 30
0.0
 11
107.9290540505425
 21
85.62821137613685
 31
0.0
  0
LINE
  5
130
330
1F
100
AcDbEntity
  8
0
  6
Continuous
 62
     7
100
AcDbLine
 10
107.429054050542
 20
83.09277432659405
 30
0.0
 11
103.387602166215
 21
83.09277432659255
 31
0.0
  0
LINE
  5
131
330
1F
100
AcDbEntity
  8
0
  6
Continuous
 62
     7
100
AcDbLine
 10
107.9290540505425
 20
82.92771123674035
 30
0.0
 11
107.9290540505425
 21
83.77421946238636
 31
0.0
  0
LINE
  5
132
330
1F
100
AcDbEntity
  8
0
  6
Continuous
 62
     7
100
AcDbLine
 10
103.6185422738901
 20
90.59203492400536
 30
0.0
 11
104.7155077853505
 21
90.59276531513285
 31
0.0
  0
LINE
  5
133
330
1F
100
AcDbEntity
  8
0
  6
Continuous
 62
     7
100
AcDbLine
 10
107.9290540505425
 20
91.87597122748247
 30
0.0
 11
107.9290540505425
 21
91.80392964940816
 31
0.0
  0
LINE
  5
134
330
1F
100
AcDbEntity
  8
0
  6
Continuous
 62
     7
100
AcDbLine
 10
102.6370468162678
 20
90.49213353096937
 30
0.0
 11
102.5215767624295
 21
90.49213353096866
 31
0.0
  0
LINE
  5
135
330
1F
100
AcDbEntity
  8
0
  6
Continuous
 62
     7
100
AcDbLine
 10
105.235123027621
 20
90.59203492400565
 30
0.0
 11
106.3320885390815
 21
90.59276531513257
 31
0.0
  0
LINE
  5
136
330
1F
100
AcDbEntity
  8
0
  6
Continuous
 62
     7
100
AcDbLine
 10
100.038970604914
 20
90.59276531513206
 30
0.0
 11
100.5585858471847
 21
90.59203492400485
 31
0.0
  0
LINE
  5
137
330
1F
100
AcDbEntity
  8
0
  6
Continuous
 62
     7
100
AcDbLine
 10
101.5978163317259
 20
90.59276531513217
 30
0.0
 11
103.0989270316199
 21
90.59276531513237
 31
0.0
  0
LINE
  5
138
330
1F
100
AcDbEntity
  8
0
  6
Continuous
 62
     7
100
AcDbLine
 10
71.41424827988797
 20
79.82686845760057
 30
0.0
 11
129.414248279888
 21
79.82686845760057
 31
0.0
  0
LINE
  5
139
330
1F
100
AcDbEntity
  8
0
  6
Continuous
 62
     7
100
AcDbLine
 10
92.89944250923358
 20
91.80392964940816
 30
0.0
 11
92.89944250923358
 21
91.87597122747707
 31
0.0
  0
LINE
  5
13A
330
1F
100
AcDbEntity
  8
0
  6
Continuous
 62
     7
100
AcDbLine
 10
92.89944250923358
 20
91.87597122747707
 30
0.0
 11
107.9290540505425
 21
91.87597122748247
 31
0.0
  0
LINE
  5
13B
330
1F
100
AcDbEntity
  8
0
  6
Continuous
 62
     7
100
AcDbLine
 10
92.89944250923358
 20
90.34245401676105
 30
0.0
 11
92.89944250923358
 21
91.15123681462487
 31
0.0
  0
LINE
  5
13C
330
1F
100
AcDbEntity
  8
0
  6
Continuous
 62
     7
100
AcDbLine
 10
93.3994425092333
 20
90.59203492400516
 30
0.0
 11
97.49862942048017
 21
90.59203492400516
 31
0.0
  0
LINE
  5
13D
330
1F
100
AcDbEntity
  8
0
  6
Continuous
 62
     7
100
AcDbLine
 10
107.4290540505422
 20
90.59276531513297
 30
0.0
 11
107.4290540505419
 21
89.59286746945514
 31
0.0
  0
LINE
  5
13E
330
1F
100
AcDbEntity
  8
0
  6
Continuous
 62
     7
100
AcDbLine
 10
99.514248279888
 20
83.09204393546426
 30
0.0
 11
97.72956952815647
 21
83.09204393546494
 31
0.0
  0
LINE
  5
13F
330
1F
100
AcDbEntity
  8
0
  6
Continuous
 62
     7
100
AcDbLine
 10
100.7895259548615
 20
83.09204393546455
 30
0.0
 11
100.2699107125912
 21
83.09204393546506
 31
0.0
  0
LINE
  5
140
330
1F
100
AcDbEntity
  8
0
  6
Continuous
 62
     7
100
AcDbLine
 10
99.51424827988816
 20
85.28527219450675
 30
0.0
 11
99.514248279888
 21
83.09204393546426
 31
0.0
  0
LINE
  5
141
330
1F
100
AcDbEntity
  8
0
  6
Continuous
 62
     7
100
AcDbLine
 10
96.9790141782095
 20
89.69279851920405
 30
0.0
 11
98.48012487810254
 21
89.69279851920425
 31
0.0
  0
LINE
  5
142
330
1F
100
AcDbEntity
  8
0
  6
Continuous
 62
     7
100
AcDbLine
 10
100.4142482798881
 20
86.84375699631374
 30
0.0
 11
100.4142482798881
 21
85.14342931803927
 31
0.0
  0
LINE
  5
143
330
1F
100
AcDbEntity
  8
0
  6
Continuous
 62
     7
100
AcDbLine
 10
92.89944250923358
 20
88.51269834642855
 30
0.0
 11
92.89944250923358
 21
88.53704092011176
 31
0.0
  0
LINE
  5
144
330
1F
100
AcDbEntity
  8
0
  6
Continuous
 62
     7
100
AcDbLine
 10
93.39944250923415
 20
89.69347558931295
 30
0.0
 11
93.39944250923409
 21
87.79365399036317
 31
0.0
  0
LINE
  5
145
330
1F
100
AcDbEntity
  8
0
  6
Continuous
 62
     7
100
AcDbLine
 10
92.89944250923358
 20
88.53704092011176
 30
0.0
 11
92.89944250923358
 21
89.46536487107434
 31
0.0
  0
LINE
  5
146
330
1F
100
AcDbEntity
  8
0
  6
Continuous
 62
     7
100
AcDbLine
 10
93.97679277842363
 20
83.09277432659226
 30
0.0
 11
93.39944250923409
 21
83.09204393546375
 31
0.0
  0
LINE
  5
147
330
1F
100
AcDbEntity
  8
0
  6
Continuous
 62
     7
100
AcDbLine
 10
95.59337353215474
 20
83.09277432659246
 30
0.0
 11
94.49640802069487
 21
83.09204393546506
 31
0.0
  0
LINE
  5
148
330
1F
100
AcDbEntity
  8
0
  6
Continuous
 62
     7
100
AcDbLine
 10
97.20995428588586
 20
83.09277432659235
 30
0.0
 11
96.11298877442536
 21
83.09204393546494
 31
0.0
  0
LINE
  5
149
330
1F
100
AcDbEntity
  8
0
  6
Continuous
 62
     7
100
AcDbLine
 10
93.39944250923426
 20
84.09354670319627
 30
0.0
 11
93.39944250923409
 21
83.09204393546375
 31
0.0
  0
LINE
  5
14A
330
1F
100
AcDbEntity
  8
0
  6
Continuous
 62
     7
100
AcDbLine
 10
93.39944250923409
 20
86.89437674232997
 30
0.0
 11
93.39944250923443
 21
84.99336759420297
 31
0.0
  0
LINE
  5
14B
330
1F
100
AcDbEntity
  8
0
  6
Continuous
 62
     7
100
AcDbLine
 10
137.914248279888
 20
90.29231982741126
 30
0.0
 11
133.3901682471618
 21
90.29231982741126
 31
0.0
  0
LINE
  5
14C
330
1F
100
AcDbEntity
  8
0
  6
Continuous
 62
     7
100
AcDbLine
 10
132.414248279888
 20
112.2896341271166
 30
0.0
 11
137.914248279888
 21
112.2896341271166
 31
0.0
  0
LINE
  5
14D
330
1F
100
AcDbEntity
  8
0
  6
Continuous
 62
     7
100
AcDbLine
 10
132.414248279888
 20
112.2896341271166
 30
0.0
 11
132.414248279888
 21
110.87295652714
 31
0.0
  0
LINE
  5
14E
330
1F
100
AcDbEntity
  8
0
  6
Continuous
 62
     7
100
AcDbLine
 10
132.414248279888
 20
110.87295652714
 30
0.0
 11
132.4142482798881
 21
98.88643273227956
 31
0.0
  0
LINE
  5
14F
330
1F
100
AcDbEntity
  8
0
  6
Continuous
 62
     7
100
AcDbLine
 10
133.3901682471618
 20
90.29231982741126
 30
0.0
 11
133.483419352344
 21
90.24970274882975
 31
0.0
  0
LINE
  5
150
330
1F
100
AcDbEntity
  8
0
  6
Continuous
 62
     7
100
AcDbLine
 10
133.359339705911
 20
90.30645928827624
 30
0.0
 11
133.3901682471618
 21
90.29231982741126
 31
0.0
  0
LINE
  5
151
330
1F
100
AcDbEntity
  8
0
  6
Continuous
 62
     7
100
AcDbLine
 10
137.914248279888
 20
85.62821137613685
 30
0.0
 11
137.914248279888
 21
85.64542351022476
 31
0.0
  0
LINE
  5
152
330
1F
100
AcDbEntity
  8
0
  6
Continuous
 62
     7
100
AcDbLine
 10
137.914248279888
 20
83.81791719524205
 30
0.0
 11
137.914248279888
 21
83.77421946238636
 31
0.0
  0
LINE
  5
153
330
1F
100
AcDbEntity
  8
0
  6
Continuous
 62
     7
100
AcDbLine
 10
137.914248279888
 20
112.2896341271166
 30
0.0
 11
137.914248279888
 21
110.87295652714
 31
0.0
  0
LINE
  5
154
330
1F
100
AcDbEntity
  8
0
  6
Continuous
 62
     7
100
AcDbLine
 10
137.914248279888
 20
92.93041341060484
 30
0.0
 11
137.914248279888
 21
93.01878084029065
 31
0.0
  0
LINE
  5
155
330
1F
100
AcDbEntity
  8
0
  6
Continuous
 62
     7
100
AcDbLine
 10
137.914248279888
 20
93.58449497007786
 30
0.0
 11
137.914248279888
 21
93.68234184265447
 31
0.0
  0
LINE
  5
156
330
1F
100
AcDbEntity
  8
0
  6
Continuous
 62
     7
100
AcDbLine
 10
137.914248279888
 20
91.80392964940816
 30
0.0
 11
137.914248279888
 21
91.87597122748247
 31
0.0
  0
LINE
  5
157
330
1F
100
AcDbEntity
  8
0
  6
Continuous
 62
     7
100
AcDbLine
 10
137.914248279888
 20
88.51269834642855
 30
0.0
 11
137.914248279888
 21
88.53704092011176
 31
0.0
  0
LINE
  5
158
330
1F
100
AcDbEntity
  8
0
  6
Continuous
 62
     7
100
AcDbLine
 10
137.914248279888
 20
93.83305235159057
 30
0.0
 11
137.914248279888
 21
93.81675766896674
 31
0.0
  0
LINE
  5
159
330
1F
100
AcDbEntity
  8
0
  6
Continuous
 62
     7
100
AcDbLine
 10
137.914248279888
 20
80.98720407005416
 30
0.0
 11
137.914248279888
 21
80.90248150929705
 31
0.0
  0
LINE
  5
15A
330
1F
100
AcDbEntity
  8
0
  6
Continuous
 62
     7
100
AcDbLine
 10
137.914248279888
 20
82.22401397683885
 30
0.0
 11
137.914248279888
 21
82.15721619733966
 31
0.0
  0
LINE
  5
15B
330
1F
100
AcDbEntity
  8
0
  6
Continuous
 62
     7
100
AcDbLine
 10
137.914248279888
 20
79.83306917298177
 30
0.0
 11
137.914248279888
 21
79.90270281231696
 31
0.0
  0
LINE
  5
15C
330
1F
100
AcDbEntity
  8
0
  6
Continuous
 62
     7
100
AcDbLine
 10
137.914248279888
 20
80.20331131135876
 30
0.0
 11
137.914248279888
 21
80.10722798598306
 31
0.0
  0
LINE
  5
15D
330
1F
100
AcDbEntity
  8
0
  6
Continuous
 62
     7
100
AcDbLine
 10
132.414248279888
 20
79.78222330685895
 30
0.0
 11
132.4142482798881
 21
79.82221792106535
 31
0.0
  0
LINE
  5
15E
330
1F
100
AcDbEntity
  8
0
  6
Continuous
 62
     7
100
AcDbLine
 10
132.414248279888
 20
79.78222330685895
 30
0.0
 11
137.914248279888
 21
79.78222330685895
 31
0.0
  0
LINE
  5
15F
330
1F
100
AcDbEntity
  8
0
  6
Continuous
 62
     7
100
AcDbLine
 10
137.914248279888
 20
79.78222330685895
 30
0.0
 11
137.914248279888
 21
79.83306917298177
 31
0.0
  0
LINE
  5
160
330
1F
100
AcDbEntity
  8
0
  6
Continuous
 62
     7
100
AcDbLine
 10
137.914248279888
 20
90.29231982741126
 30
0.0
 11
137.914248279888
 21
90.34245401676097
 31
0.0
  0
LINE
  5
161
330
1F
100
AcDbEntity
  8
0
  6
Continuous
 62
     7
100
AcDbLine
 10
137.914248279888
 20
110.87295652714
 30
0.0
 11
137.914248279888
 21
93.83305235159057
 31
0.0
  0
LINE
  5
162
330
1F
100
AcDbEntity
  8
0
  6
Continuous
 62
     7
100
AcDbLine
 10
131.914248279888
 20
107.2896341271166
 30
0.0
 11
130.4142482798881
 21
108.7896341271166
 31
0.0
  0
LINE
  5
163
330
1F
100
AcDbEntity
  8
0
  6
Continuous
 62
     7
100
AcDbLine
 10
131.914248279888
 20
102.2896341271166
 30
0.0
 11
130.4142482798881
 21
100.7896341271168
 31
0.0
  0
LINE
  5
164
330
1F
100
AcDbEntity
  8
0
  6
Continuous
 62
     7
100
AcDbLine
 10
137.914248279888
 20
88.53704092011176
 30
0.0
 11
107.9290540505425
 21
88.53704092011176
 31
0.0
  0
LINE
  5
165
330
1F
100
AcDbEntity
  8
0
  6
Continuous
 62
     7
100
AcDbLine
 10
137.914248279888
 20
83.81791719524205
 30
0.0
 11
107.9290540505425
 21
83.81791719524205
 31
0.0
  0
LINE
  5
166
330
1F
100
AcDbEntity
  8
0
  6
Continuous
 62
     7
100
AcDbLine
 10
137.914248279888
 20
84.68026455455455
 30
0.0
 11
137.914248279888
 21
85.62821137613685
 31
0.0
  0
LINE
  5
167
330
1F
100
AcDbEntity
  8
0
  6
Continuous
 62
     7
100
AcDbLine
 10
137.914248279888
 20
87.57555093362575
 30
0.0
 11
137.914248279888
 21
88.51269834642855
 31
0.0
  0
LINE
  5
168
330
1F
100
AcDbEntity
  8
0
  6
Continuous
 62
     7
100
AcDbLine
 10
137.914248279888
 20
85.64542351022476
 30
0.0
 11
137.914248279888
 21
86.59960922052466
 31
0.0
  0
LINE
  5
169
330
1F
100
AcDbEntity
  8
0
  6
Continuous
 62
     7
100
AcDbLine
 10
137.914248279888
 20
86.59960922052466
 30
0.0
 11
137.914248279888
 21
87.57555093362575
 31
0.0
  0
LINE
  5
16A
330
1F
100
AcDbEntity
  8
0
  6
Continuous
 62
     7
100
AcDbLine
 10
137.914248279888
 20
88.53704092011176
 30
0.0
 11
137.914248279888
 21
89.46536487107434
 31
0.0
  0
LINE
  5
16B
330
1F
100
AcDbEntity
  8
0
  6
Continuous
 62
     7
100
AcDbLine
 10
137.914248279888
 20
89.46536487107434
 30
0.0
 11
107.9290540505425
 21
89.46536487107434
 31
0.0
  0
LINE
  5
16C
330
1F
100
AcDbEntity
  8
0
  6
Continuous
 62
     7
100
AcDbLine
 10
107.9290540505425
 20
86.59960922052466
 30
0.0
 11
107.9290540505425
 21
87.57555093362575
 31
0.0
  0
LINE
  5
16D
330
1F
100
AcDbEntity
  8
0
  6
Continuous
 62
     7
100
AcDbLine
 10
137.914248279888
 20
86.59960922052466
 30
0.0
 11
107.9290540505425
 21
86.59960922052466
 31
0.0
  0
LINE
  5
16E
330
1F
100
AcDbEntity
  8
0
  6
Continuous
 62
     7
100
AcDbLine
 10
107.9290540505425
 20
87.57555093362575
 30
0.0
 11
137.914248279888
 21
87.57555093362575
 31
0.0
  0
LINE
  5
16F
330
1F
100
AcDbEntity
  8
0
  6
Continuous
 62
     7
100
AcDbLine
 10
137.914248279888
 20
88.51269834642855
 30
0.0
 11
107.9290540505425
 21
88.51269834642855
 31
0.0
  0
LINE
  5
170
330
1F
100
AcDbEntity
  8
0
  6
Continuous
 62
     7
100
AcDbLine
 10
137.914248279888
 20
85.64542351022476
 30
0.0
 11
107.9290540505425
 21
85.64542351022476
 31
0.0
  0
LINE
  5
171
330
1F
100
AcDbEntity
  8
0
  6
Continuous
 62
     7
100
AcDbLine
 10
137.914248279888
 20
84.68026455455455
 30
0.0
 11
107.9290540505425
 21
84.68026455455455
 31
0.0
  0
LINE
  5
172
330
1F
100
AcDbEntity
  8
0
  6
Continuous
 62
     7
100
AcDbLine
 10
137.914248279888
 20
85.62821137613685
 30
0.0
 11
107.9290540505425
 21
85.62821137613685
 31
0.0
  0
LINE
  5
173
330
1F
100
AcDbEntity
  8
0
  6
Continuous
 62
     7
100
AcDbLine
 10
110.0950772074321
 20
90.24970274882975
 30
0.0
 11
110.1883283126142
 21
90.29231982741126
 31
0.0
  0
LINE
  5
174
330
1F
100
AcDbEntity
  8
0
  6
Continuous
 62
     7
100
AcDbLine
 10
110.1883283126142
 20
90.29231982741126
 30
0.0
 11
110.219156853865
 21
90.30645928827624
 31
0.0
  0
LINE
  5
175
330
1F
100
AcDbEntity
  8
0
  6
Continuous
 62
     7
100
AcDbLine
 10
133.483419352344
 20
90.24970274882975
 30
0.0
 11
110.0950772074321
 21
90.24970274882975
 31
0.0
  0
LINE
  5
176
330
1F
100
AcDbEntity
  8
0
  6
Continuous
 62
     7
100
AcDbLine
 10
107.9290540505425
 20
90.34245401676105
 30
0.0
 11
107.9290540505425
 21
91.15123681462487
 31
0.0
  0
LINE
  5
177
330
1F
100
AcDbEntity
  8
0
  6
Continuous
 62
     7
100
AcDbLine
 10
137.914248279888
 20
91.15123681462475
 30
0.0
 11
107.9290540505425
 21
91.15123681462487
 31
0.0
  0
LINE
  5
178
330
1F
100
AcDbEntity
  8
0
  6
Continuous
 62
     7
100
AcDbLine
 10
137.914248279888
 20
91.87597122748247
 30
0.0
 11
107.9290540505425
 21
91.87597122748247
 31
0.0
  0
LINE
  5
179
330
1F
100
AcDbEntity
  8
0
  6
Continuous
 62
     7
100
AcDbLine
 10
137.914248279888
 20
91.80392964940816
 30
0.0
 11
107.9290540505425
 21
91.80392964940816
 31
0.0
  0
LINE
  5
17A
330
1F
100
AcDbEntity
  8
0
  6
Continuous
 62
     7
100
AcDbLine
 10
107.9290540505425
 20
90.34245401676105
 30
0.0
 11
107.9290540505425
 21
90.29231982741135
 31
0.0
  0
LINE
  5
17B
330
1F
100
AcDbEntity
  8
0
  6
Continuous
 62
     7
100
AcDbLine
 10
133.359339705911
 20
90.30645928827624
 30
0.0
 11
110.219156853865
 21
90.30645928827624
 31
0.0
  0
LINE
  5
17C
330
1F
100
AcDbEntity
  8
0
  6
Continuous
 62
     7
100
AcDbLine
 10
137.914248279888
 20
89.46536487107434
 30
0.0
 11
137.914248279888
 21
90.29231982741126
 31
0.0
  0
LINE
  5
17D
330
1F
100
AcDbEntity
  8
0
  6
Continuous
 62
     7
100
AcDbLine
 10
137.914248279888
 20
90.34245401676097
 30
0.0
 11
137.914248279888
 21
91.15123681462475
 31
0.0
  0
LINE
  5
17E
330
1F
100
AcDbEntity
  8
0
  6
Continuous
 62
     7
100
AcDbLine
 10
137.914248279888
 20
91.15123681462475
 30
0.0
 11
137.914248279888
 21
91.80392964940816
 31
0.0
  0
LINE
  5
17F
330
1F
100
AcDbEntity
  8
0
  6
Continuous
 62
     7
100
AcDbLine
 10
62.91424827988798
 20
85.64542351022465
 30
0.0
 11
92.89944250923358
 21
85.64542351022476
 31
0.0
  0
LINE
  5
180
330
1F
100
AcDbEntity
  8
0
  6
Continuous
 62
     7
100
AcDbLine
 10
92.89944250923358
 20
86.59960922052466
 30
0.0
 11
92.89944250923358
 21
87.57555093362575
 31
0.0
  0
LINE
  5
181
330
1F
100
AcDbEntity
  8
0
  6
Continuous
 62
     7
100
AcDbLine
 10
92.89944250923358
 20
90.29231982741135
 30
0.0
 11
90.64016824716177
 21
90.29231982741126
 31
0.0
  0
LINE
  5
182
330
1F
100
AcDbEntity
  8
0
  6
Continuous
 62
     7
100
AcDbLine
 10
92.89944250923358
 20
82.22401397683885
 30
0.0
 11
92.89944250923358
 21
82.15721619733426
 31
0.0
  0
LINE
  5
183
330
1F
100
AcDbEntity
  8
0
  6
Continuous
 62
     7
100
AcDbLine
 10
90.64016824716177
 20
90.29231982741126
 30
0.0
 11
90.60933970591097
 21
90.30645928827624
 31
0.0
  0
LINE
  5
184
330
1F
100
AcDbEntity
  8
0
  6
Continuous
 62
     7
100
AcDbLine
 10
90.73341935234399
 20
90.24970274882975
 30
0.0
 11
90.64016824716177
 21
90.29231982741126
 31
0.0
  0
LINE
  5
185
330
1F
100
AcDbEntity
  8
0
  6
Continuous
 62
     7
100
AcDbLine
 10
92.89944250923358
 20
82.92771123674035
 30
0.0
 11
92.89944250923358
 21
83.77421946238636
 31
0.0
  0
LINE
  5
186
330
1F
100
AcDbEntity
  8
0
  6
Continuous
 62
     7
100
AcDbLine
 10
92.89944250923358
 20
90.29231982741135
 30
0.0
 11
92.89944250923358
 21
90.34245401676105
 31
0.0
  0
LINE
  5
187
330
1F
100
AcDbEntity
  8
0
  6
Continuous
 62
     7
100
AcDbLine
 10
92.89944250923358
 20
85.62821137613685
 30
0.0
 11
62.91424827988798
 21
85.62821137613685
 31
0.0
  0
LINE
  5
188
330
1F
100
AcDbEntity
  8
0
  6
Continuous
 62
     7
100
AcDbLine
 10
92.89944250923358
 20
83.77421946238636
 30
0.0
 11
62.91424827988798
 21
83.77421946238636
 31
0.0
  0
LINE
  5
189
330
1F
100
AcDbEntity
  8
0
  6
Continuous
 62
     7
100
AcDbLine
 10
92.89944250923358
 20
83.81791719524205
 30
0.0
 11
62.91424827988798
 21
83.81791719524205
 31
0.0
  0
LINE
  5
18A
330
1F
100
AcDbEntity
  8
0
  6
Continuous
 62
     7
100
AcDbLine
 10
92.89944250923358
 20
84.68026455455455
 30
0.0
 11
62.91424827988798
 21
84.68026455455447
 31
0.0
  0
LINE
  5
18B
330
1F
100
AcDbEntity
  8
0
  6
Continuous
 62
     7
100
AcDbLine
 10
92.89944250923358
 20
86.59960922052466
 30
0.0
 11
62.91424827988798
 21
86.59960922052466
 31
0.0
  0
LINE
  5
18C
330
1F
100
AcDbEntity
  8
0
  6
Continuous
 62
     7
100
AcDbLine
 10
62.91424827988798
 20
87.57555093362575
 30
0.0
 11
92.89944250923358
 21
87.57555093362575
 31
0.0
  0
LINE
  5
18D
330
1F
100
AcDbEntity
  8
0
  6
Continuous
 62
     7
100
AcDbLine
 10
92.89944250923358
 20
89.46536487107434
 30
0.0
 11
62.91424827988798
 21
89.46536487107434
 31
0.0
  0
LINE
  5
18E
330
1F
100
AcDbEntity
  8
0
  6
Continuous
 62
     7
100
AcDbLine
 10
92.89944250923358
 20
88.53704092011176
 30
0.0
 11
62.91424827988798
 21
88.53704092011176
 31
0.0
  0
LINE
  5
18F
330
1F
100
AcDbEntity
  8
0
  6
Continuous
 62
     7
100
AcDbLine
 10
62.91424827988798
 20
88.51269834642846
 30
0.0
 11
92.89944250923358
 21
88.51269834642855
 31
0.0
  0
LINE
  5
190
330
1F
100
AcDbEntity
  8
0
  6
Continuous
 62
     7
100
AcDbLine
 10
92.89944250923358
 20
82.92771123674035
 30
0.0
 11
62.91424827988798
 21
82.92771123674027
 31
0.0
  0
LINE
  5
191
330
1F
100
AcDbEntity
  8
0
  6
Continuous
 62
     7
100
AcDbLine
 10
92.89944250923358
 20
90.34245401676105
 30
0.0
 11
62.91424827988798
 21
90.34245401676085
 31
0.0
  0
LINE
  5
192
330
1F
100
AcDbEntity
  8
0
  6
Continuous
 62
     7
100
AcDbLine
 10
92.89944250923358
 20
91.87597122747707
 30
0.0
 11
62.91424827988798
 21
91.87597122748235
 31
0.0
  0
LINE
  5
193
330
1F
100
AcDbEntity
  8
0
  6
Continuous
 62
     7
100
AcDbLine
 10
92.89944250923358
 20
91.80392964940816
 30
0.0
 11
62.91424827988798
 21
91.80392964940816
 31
0.0
  0
LINE
  5
194
330
1F
100
AcDbEntity
  8
0
  6
Continuous
 62
     7
100
AcDbLine
 10
92.89944250923358
 20
91.15123681462487
 30
0.0
 11
62.91424827988798
 21
91.15123681462475
 31
0.0
  0
LINE
  5
195
330
1F
100
AcDbEntity
  8
0
  6
Continuous
 62
     7
100
AcDbLine
 10
137.914248279888
 20
90.34245401676097
 30
0.0
 11
107.9290540505425
 21
90.34245401676105
 31
0.0
  0
LINE
  5
196
330
1F
100
AcDbEntity
  8
0
  6
Continuous
 62
     7
100
AcDbLine
 10
129.414248279888
 20
96.72069828341486
 30
0.0
 11
71.41424827988797
 21
96.72069828341495
 31
0.0
  0
LINE
  5
197
330
1F
100
AcDbEntity
  8
0
  6
Continuous
 62
     7
100
AcDbLine
 10
62.91424827988798
 20
93.01878084029065
 30
0.0
 11
137.914248279888
 21
93.01878084029065
 31
0.0
  0
LINE
  5
198
330
1F
100
AcDbEntity
  8
0
  6
Continuous
 62
     7
100
AcDbLine
 10
137.914248279888
 20
92.93041341060484
 30
0.0
 11
62.91424827988798
 21
92.93041341060484
 31
0.0
  0
LINE
  5
199
330
1F
100
AcDbEntity
  8
0
  6
Continuous
 62
     7
100
AcDbLine
 10
137.914248279888
 20
92.50255112436056
 30
0.0
 11
62.91424827988798
 21
92.50255112436056
 31
0.0
  0
LINE
  5
19A
330
1F
100
AcDbEntity
  8
0
  6
Continuous
 62
     7
100
AcDbLine
 10
137.914248279888
 20
92.50255112436056
 30
0.0
 11
137.914248279888
 21
92.93041341060484
 31
0.0
  0
LINE
  5
19B
330
1F
100
AcDbEntity
  8
0
  6
Continuous
 62
     7
100
AcDbLine
 10
137.914248279888
 20
93.41461255105466
 30
0.0
 11
62.91424827988798
 21
93.41461255105466
 31
0.0
  0
LINE
  5
19C
330
1F
100
AcDbEntity
  8
0
  6
Continuous
 62
     7
100
AcDbLine
 10
137.914248279888
 20
93.58449497007786
 30
0.0
 11
62.91424827988798
 21
93.58449497007774
 31
0.0
  0
LINE
  5
19D
330
1F
100
AcDbEntity
  8
0
  6
Continuous
 62
     7
100
AcDbLine
 10
62.91424827988798
 20
93.83305235159057
 30
0.0
 11
137.914248279888
 21
93.83305235159057
 31
0.0
  0
LINE
  5
19E
330
1F
100
AcDbEntity
  8
0
  6
Continuous
 62
     7
100
AcDbLine
 10
137.914248279888
 20
93.68234184265447
 30
0.0
 11
62.91424827988798
 21
93.68234184265447
 31
0.0
  0
LINE
  5
19F
330
1F
100
AcDbEntity
  8
0
  6
Continuous
 62
     7
100
AcDbLine
 10
137.914248279888
 20
93.81675766896674
 30
0.0
 11
62.91424827988798
 21
93.81675766896674
 31
0.0
  0
LINE
  5
1A0
330
1F
100
AcDbEntity
  8
0
  6
Continuous
 62
     7
100
AcDbLine
 10
137.914248279888
 20
93.68234184265447
 30
0.0
 11
137.914248279888
 21
93.81675766896674
 31
0.0
  0
LINE
  5
1A1
330
1F
100
AcDbEntity
  8
0
  6
Continuous
 62
     7
100
AcDbLine
 10
137.914248279888
 20
91.87597122748247
 30
0.0
 11
137.914248279888
 21
92.50255112436056
 31
0.0
  0
LINE
  5
1A2
330
1F
100
AcDbEntity
  8
0
  6
Continuous
 62
     7
100
AcDbLine
 10
137.914248279888
 20
93.01878084029065
 30
0.0
 11
137.914248279888
 21
93.41461255105466
 31
0.0
  0
LINE
  5
1A3
330
1F
100
AcDbEntity
  8
0
  6
Continuous
 62
     7
100
AcDbLine
 10
137.914248279888
 20
93.41461255105466
 30
0.0
 11
137.914248279888
 21
93.58449497007786
 31
0.0
  0
LINE
  5
1A4
330
1F
100
AcDbEntity
  8
0
  6
Continuous
 62
     7
100
AcDbLine
 10
137.914248279888
 20
80.90248150929705
 30
0.0
 11
62.91424827988798
 21
80.90248150929705
 31
0.0
  0
LINE
  5
1A5
330
1F
100
AcDbEntity
  8
0
  6
Continuous
 62
     7
100
AcDbLine
 10
62.91424827988798
 20
80.98720407005416
 30
0.0
 11
137.914248279888
 21
80.98720407005416
 31
0.0
  0
LINE
  5
1A6
330
1F
100
AcDbEntity
  8
0
  6
Continuous
 62
     7
100
AcDbLine
 10
62.91424827988798
 20
82.15721619733955
 30
0.0
 11
92.89944250923358
 21
82.15721619733426
 31
0.0
  0
LINE
  5
1A7
330
1F
100
AcDbEntity
  8
0
  6
Continuous
 62
     7
100
AcDbLine
 10
62.91424827988798
 20
82.22401397683885
 30
0.0
 11
92.89944250923358
 21
82.22401397683885
 31
0.0
  0
LINE
  5
1A8
330
1F
100
AcDbEntity
  8
0
  6
Continuous
 62
     7
100
AcDbLine
 10
137.914248279888
 20
81.47773115370146
 30
0.0
 11
62.91424827988798
 21
81.47773115370146
 31
0.0
  0
LINE
  5
1A9
330
1F
100
AcDbEntity
  8
0
  6
Continuous
 62
     7
100
AcDbLine
 10
137.914248279888
 20
81.47773115370146
 30
0.0
 11
137.914248279888
 21
82.15721619733966
 31
0.0
  0
LINE
  5
1AA
330
1F
100
AcDbEntity
  8
0
  6
Continuous
 62
     7
100
AcDbLine
 10
107.9290540505425
 20
82.15721619733426
 30
0.0
 11
137.914248279888
 21
82.15721619733966
 31
0.0
  0
LINE
  5
1AB
330
1F
100
AcDbEntity
  8
0
  6
Continuous
 62
     7
100
AcDbLine
 10
92.89944250923358
 20
82.15721619733426
 30
0.0
 11
107.9290540505425
 21
82.15721619733426
 31
0.0
  0
LINE
  5
1AC
330
1F
100
AcDbEntity
  8
0
  6
Continuous
 62
     7
100
AcDbLine
 10
107.9290540505425
 20
82.15721619733426
 30
0.0
 11
107.9290540505425
 21
82.22401397683885
 31
0.0
  0
LINE
  5
1AD
330
1F
100
AcDbEntity
  8
0
  6
Continuous
 62
     7
100
AcDbLine
 10
62.91424827988798
 20
82.22401397683885
 30
0.0
 11
62.91424827988798
 21
82.15721619733955
 31
0.0
  0
LINE
  5
1AE
330
1F
100
AcDbEntity
  8
0
  6
Continuous
 62
     7
100
AcDbLine
 10
137.914248279888
 20
82.92771123674035
 30
0.0
 11
107.9290540505425
 21
82.92771123674035
 31
0.0
  0
LINE
  5
1AF
330
1F
100
AcDbEntity
  8
0
  6
Continuous
 62
     7
100
AcDbLine
 10
107.9290540505425
 20
82.22401397683885
 30
0.0
 11
137.914248279888
 21
82.22401397683885
 31
0.0
  0
LINE
  5
1B0
330
1F
100
AcDbEntity
  8
0
  6
Continuous
 62
     7
100
AcDbLine
 10
137.914248279888
 20
83.77421946238636
 30
0.0
 11
107.9290540505425
 21
83.77421946238636
 31
0.0
  0
LINE
  5
1B1
330
1F
100
AcDbEntity
  8
0
  6
Continuous
 62
     7
100
AcDbLine
 10
137.914248279888
 20
80.98720407005416
 30
0.0
 11
137.914248279888
 21
81.47773115370146
 31
0.0
  0
LINE
  5
1B2
330
1F
100
AcDbEntity
  8
0
  6
Continuous
 62
     7
100
AcDbLine
 10
137.914248279888
 20
82.22401397683885
 30
0.0
 11
137.914248279888
 21
82.92771123674035
 31
0.0
  0
LINE
  5
1B3
330
1F
100
AcDbEntity
  8
0
  6
Continuous
 62
     7
100
AcDbLine
 10
137.914248279888
 20
82.92771123674035
 30
0.0
 11
137.914248279888
 21
83.77421946238636
 31
0.0
  0
LINE
  5
1B4
330
1F
100
AcDbEntity
  8
0
  6
Continuous
 62
     7
100
AcDbLine
 10
137.914248279888
 20
83.81791719524205
 30
0.0
 11
137.914248279888
 21
84.68026455455455
 31
0.0
  0
LINE
  5
1B5
330
1F
100
AcDbEntity
  8
0
  6
Continuous
 62
     7
100
AcDbLine
 10
110.1883283126142
 20
90.29231982741126
 30
0.0
 11
107.9290540505425
 21
90.29231982741135
 31
0.0
  0
LINE
  5
1B6
330
1F
100
AcDbEntity
  8
0
  6
Continuous
 62
     7
100
AcDbLine
 10
107.9290540505425
 20
88.53704092011176
 30
0.0
 11
107.9290540505425
 21
89.46536487107434
 31
0.0
  0
LINE
  5
1B7
330
1F
100
AcDbEntity
  8
0
  6
Continuous
 62
     7
100
AcDbLine
 10
107.9290540505425
 20
83.77421946238636
 30
0.0
 11
107.9290540505425
 21
83.81791719524205
 31
0.0
  0
LINE
  5
1B8
330
1F
100
AcDbEntity
  8
0
  6
Continuous
 62
     7
100
AcDbLine
 10
107.9290540505425
 20
88.53704092011176
 30
0.0
 11
107.9290540505425
 21
88.51269834642855
 31
0.0
  0
LINE
  5
1B9
330
1F
100
AcDbEntity
  8
0
  6
Continuous
 62
     7
100
AcDbLine
 10
92.89944250923358
 20
83.81791719524205
 30
0.0
 11
92.89944250923358
 21
83.77421946238636
 31
0.0
  0
LINE
  5
1BA
330
1F
100
AcDbEntity
  8
0
  6
Continuous
 62
     7
100
AcDbLine
 10
92.89944250923358
 20
84.68026455455455
 30
0.0
 11
92.89944250923358
 21
85.62821137613685
 31
0.0
  0
LINE
  5
1BB
330
1F
100
AcDbEntity
  8
0
  6
Continuous
 62
     7
100
AcDbLine
 10
92.89944250923358
 20
85.62821137613685
 30
0.0
 11
92.89944250923358
 21
85.64542351022476
 31
0.0
  0
LINE
  5
1BC
330
1F
100
AcDbEntity
  8
0
  6
Continuous
 62
     7
100
AcDbLine
 10
130.4142482798881
 20
102.8503956461317
 30
0.0
 11
130.414248279888
 21
102.2896341271185
 31
0.0
  0
LINE
  5
1BD
330
1F
100
AcDbEntity
  8
0
  6
Continuous
 62
     7
100
AcDbLine
 10
130.4142482798881
 20
100.7896341271168
 30
0.0
 11
130.414248279888
 21
102.2896341271185
 31
0.0
  0
LINE
  5
1BE
330
1F
100
AcDbEntity
  8
0
  6
Continuous
 62
     7
100
AcDbLine
 10
131.914248279888
 20
107.2896341271166
 30
0.0
 11
131.914248279888
 21
102.2896341271166
 31
0.0
  0
LINE
  5
1BF
330
1F
100
AcDbEntity
  8
0
  6
Continuous
 62
     7
100
AcDbLine
 10
132.4142482798882
 20
107.2896341271166
 30
0.0
 11
131.914248279888
 21
107.2896341271166
 31
0.0
  0
LINE
  5
1C0
330
1F
100
AcDbEntity
  8
0
  6
Continuous
 62
     7
100
AcDbLine
 10
132.4142482798882
 20
102.2896341271166
 30
0.0
 11
131.914248279888
 21
102.2896341271166
 31
0.0
  0
LINE
  5
1C1
330
1F
100
AcDbEntity
  8
0
  6
Continuous
 62
     7
100
AcDbLine
 10
67.34507720743196
 20
90.24970274882975
 30
0.0
 11
90.73341935234399
 21
90.24970274882975
 31
0.0
  0
LINE
  5
1C2
330
1F
100
AcDbEntity
  8
0
  6
Continuous
 62
     7
100
AcDbLine
 10
67.46915685386497
 20
90.30645928827624
 30
0.0
 11
90.60933970591097
 21
90.30645928827624
 31
0.0
  0
LINE
  5
1C3
330
1F
100
AcDbEntity
  8
0
  6
Continuous
 62
     7
100
AcDbLine
 10
67.46915685386497
 20
90.30645928827624
 30
0.0
 11
67.43832831261406
 21
90.29231982741126
 31
0.0
  0
LINE
  5
1C4
330
1F
100
AcDbEntity
  8
0
  6
Continuous
 62
     7
100
AcDbLine
 10
67.43832831261406
 20
90.29231982741126
 30
0.0
 11
62.91424827988798
 21
90.29231982741126
 31
0.0
  0
LINE
  5
1C5
330
1F
100
AcDbEntity
  8
0
  6
Continuous
 62
     7
100
AcDbLine
 10
67.43832831261406
 20
90.29231982741126
 30
0.0
 11
67.34507720743196
 21
90.24970274882975
 31
0.0
  0
LINE
  5
1C6
330
1F
100
AcDbEntity
  8
0
  6
Continuous
 62
     7
100
AcDbLine
 10
69.91424827921489
 20
102.2896341264436
 30
0.0
 11
70.413248279888
 21
101.7906341266662
 31
0.0
  0
LINE
  5
1C7
330
1F
100
AcDbEntity
  8
0
  6
Continuous
 62
     7
100
AcDbLine
 10
69.91424827921489
 20
107.2896341277898
 30
0.0
 11
70.41424827988797
 21
107.7896341275655
 31
0.0
  0
LINE
  5
1C8
330
1F
100
AcDbEntity
  8
0
  6
Continuous
 62
     7
100
AcDbLine
 10
137.914248279888
 20
80.44266384411836
 30
0.0
 11
137.914248279888
 21
80.90248150929705
 31
0.0
  0
LINE
  5
1C9
330
1F
100
AcDbEntity
  8
0
  6
Continuous
 62
     7
100
AcDbLine
 10
137.914248279888
 20
80.44266384411836
 30
0.0
 11
62.91424827988798
 21
80.44266384411824
 31
0.0
  0
LINE
  5
1CA
330
1F
100
AcDbEntity
  8
0
  6
Continuous
 62
     7
100
AcDbLine
 10
137.914248279888
 20
79.90270281231696
 30
0.0
 11
137.914248279888
 21
80.10722798598306
 31
0.0
  0
LINE
  5
1CB
330
1F
100
AcDbEntity
  8
0
  6
Continuous
 62
     7
100
AcDbLine
 10
137.914248279888
 20
80.10722798598306
 30
0.0
 11
62.91424827988798
 21
80.10722798598295
 31
0.0
  0
LINE
  5
1CC
330
1F
100
AcDbEntity
  8
0
  6
Continuous
 62
     7
100
AcDbLine
 10
62.91424827988798
 20
80.20331131135876
 30
0.0
 11
137.914248279888
 21
80.20331131135876
 31
0.0
  0
LINE
  5
1CD
330
1F
100
AcDbEntity
  8
0
  6
Continuous
 62
     7
100
AcDbLine
 10
137.914248279888
 20
80.20331131135876
 30
0.0
 11
137.914248279888
 21
80.44266384411836
 31
0.0
  0
LINE
  5
1CE
330
1F
100
AcDbEntity
  8
0
  6
Continuous
 62
     7
100
AcDbLine
 10
137.914248279888
 20
79.90270281231696
 30
0.0
 11
62.91424827988798
 21
79.90270281231685
 31
0.0
  0
LINE
  5
1CF
330
1F
100
AcDbEntity
  8
0
  6
Continuous
 62
     7
100
AcDbLine
 10
137.914248279888
 20
79.83306917298177
 30
0.0
 11
62.91424827988798
 21
79.83306917298177
 31
0.0
  0
LINE
  5
1D0
330
1F
100
AcDbEntity
  8
0
  6
Continuous
 62
     7
100
AcDbLine
 10
62.91424827988798
 20
112.2896341271166
 30
0.0
 11
68.41424827988797
 21
112.2896341271166
 31
0.0
  0
LINE
  5
1D1
330
1F
100
AcDbEntity
  8
0
  6
Continuous
 62
     7
100
AcDbLine
 10
62.91424827988798
 20
112.2896341271166
 30
0.0
 11
62.91424827988798
 21
110.87295652714
 31
0.0
  0
LINE
  5
1D2
330
1F
100
AcDbEntity
  8
0
  6
Continuous
 62
     7
100
AcDbLine
 10
69.91424827921489
 20
107.2896341277898
 30
0.0
 11
69.91424827988797
 21
106.9761833949654
 31
0.0
  0
LINE
  5
1D3
330
1F
100
AcDbEntity
  8
0
  6
Continuous
 62
     7
100
AcDbLine
 10
68.41424827988803
 20
107.2896341271166
 30
0.0
 11
69.91424827921489
 21
107.2896341277898
 31
0.0
  0
LINE
  5
1D4
330
1F
100
AcDbEntity
  8
0
  6
Continuous
 62
     7
100
AcDbLine
 10
68.41424827988797
 20
112.2896341271166
 30
0.0
 11
68.41424827988797
 21
110.8729565271401
 31
0.0
  0
LINE
  5
1D5
330
1F
100
AcDbEntity
  8
0
  6
Continuous
 62
     7
100
AcDbLine
 10
68.41424827988797
 20
98.88643273227945
 30
0.0
 11
68.41424827988797
 21
110.8729565271401
 31
0.0
  0
LINE
  5
1D6
330
1F
100
AcDbEntity
  8
0
  6
Continuous
 62
     7
100
AcDbLine
 10
69.91424827988797
 20
106.9761833949654
 30
0.0
 11
69.91424827921489
 21
102.2896341264436
 31
0.0
  0
LINE
  5
1D7
330
1F
100
AcDbEntity
  8
0
  6
Continuous
 62
     7
100
AcDbLine
 10
68.41424827988803
 20
102.2896341271166
 30
0.0
 11
69.91424827921489
 21
102.2896341264436
 31
0.0
  0
LINE
  5
1D8
330
1F
100
AcDbEntity
  8
0
  6
Continuous
 62
     7
100
AcDbLine
 10
62.91424827988798
 20
83.81791719524205
 30
0.0
 11
62.91424827988798
 21
83.77421946238636
 31
0.0
  0
LINE
  5
1D9
330
1F
100
AcDbEntity
  8
0
  6
Continuous
 62
     7
100
AcDbLine
 10
62.91424827988798
 20
82.92771123674027
 30
0.0
 11
62.91424827988798
 21
83.77421946238636
 31
0.0
  0
LINE
  5
1DA
330
1F
100
AcDbEntity
  8
0
  6
Continuous
 62
     7
100
AcDbLine
 10
62.91424827988798
 20
90.29231982741126
 30
0.0
 11
62.91424827988798
 21
90.34245401676085
 31
0.0
  0
LINE
  5
1DB
330
1F
100
AcDbEntity
  8
0
  6
Continuous
 62
     7
100
AcDbLine
 10
62.91424827988798
 20
80.98720407005416
 30
0.0
 11
62.91424827988798
 21
81.47773115370146
 31
0.0
  0
LINE
  5
1DC
330
1F
100
AcDbEntity
  8
0
  6
Continuous
 62
     7
100
AcDbLine
 10
62.91424827988798
 20
81.47773115370146
 30
0.0
 11
62.91424827988798
 21
82.15721619733955
 31
0.0
  0
LINE
  5
1DD
330
1F
100
AcDbEntity
  8
0
  6
Continuous
 62
     7
100
AcDbLine
 10
62.91424827988798
 20
93.58449497007774
 30
0.0
 11
62.91424827988798
 21
93.68234184265447
 31
0.0
  0
LINE
  5
1DE
330
1F
100
AcDbEntity
  8
0
  6
Continuous
 62
     7
100
AcDbLine
 10
62.91424827988798
 20
92.93041341060484
 30
0.0
 11
62.91424827988798
 21
93.01878084029065
 31
0.0
  0
LINE
  5
1DF
330
1F
100
AcDbEntity
  8
0
  6
Continuous
 62
     7
100
AcDbLine
 10
62.91424827988798
 20
92.50255112436056
 30
0.0
 11
62.91424827988798
 21
92.93041341060484
 31
0.0
  0
LINE
  5
1E0
330
1F
100
AcDbEntity
  8
0
  6
Continuous
 62
     7
100
AcDbLine
 10
62.91424827988798
 20
93.41461255105466
 30
0.0
 11
62.91424827988798
 21
93.58449497007774
 31
0.0
  0
LINE
  5
1E1
330
1F
100
AcDbEntity
  8
0
  6
Continuous
 62
     7
100
AcDbLine
 10
62.91424827988798
 20
93.68234184265447
 30
0.0
 11
62.91424827988798
 21
93.81675766896674
 31
0.0
  0
LINE
  5
1E2
330
1F
100
AcDbEntity
  8
0
  6
Continuous
 62
     7
100
AcDbLine
 10
62.91424827988798
 20
93.01878084029065
 30
0.0
 11
62.91424827988798
 21
93.41461255105466
 31
0.0
  0
LINE
  5
1E3
330
1F
100
AcDbEntity
  8
0
  6
Continuous
 62
     7
100
AcDbLine
 10
62.91424827988798
 20
110.87295652714
 30
0.0
 11
62.91424827988798
 21
93.83305235159057
 31
0.0
  0
LINE
  5
1E4
330
1F
100
AcDbEntity
  8
0
  6
Continuous
 62
     7
100
AcDbLine
 10
62.91424827988798
 20
87.57555093362575
 30
0.0
 11
62.91424827988798
 21
88.51269834642846
 31
0.0
  0
LINE
  5
1E5
330
1F
100
AcDbEntity
  8
0
  6
Continuous
 62
     7
100
AcDbLine
 10
62.91424827988798
 20
86.59960922052466
 30
0.0
 11
62.91424827988798
 21
87.57555093362575
 31
0.0
  0
LINE
  5
1E6
330
1F
100
AcDbEntity
  8
0
  6
Continuous
 62
     7
100
AcDbLine
 10
62.91424827988798
 20
88.51269834642846
 30
0.0
 11
62.91424827988798
 21
88.53704092011176
 31
0.0
  0
LINE
  5
1E7
330
1F
100
AcDbEntity
  8
0
  6
Continuous
 62
     7
100
AcDbLine
 10
62.91424827988798
 20
91.87597122748235
 30
0.0
 11
62.91424827988798
 21
92.50255112436056
 31
0.0
  0
LINE
  5
1E8
330
1F
100
AcDbEntity
  8
0
  6
Continuous
 62
     7
100
AcDbLine
 10
62.91424827988798
 20
91.80392964940816
 30
0.0
 11
62.91424827988798
 21
91.87597122748235
 31
0.0
  0
LINE
  5
1E9
330
1F
100
AcDbEntity
  8
0
  6
Continuous
 62
     7
100
AcDbLine
 10
62.91424827988798
 20
90.34245401676085
 30
0.0
 11
62.91424827988798
 21
91.15123681462475
 31
0.0
  0
LINE
  5
1EA
330
1F
100
AcDbEntity
  8
0
  6
Continuous
 62
     7
100
AcDbLine
 10
62.91424827988798
 20
91.15123681462475
 30
0.0
 11
62.91424827988798
 21
91.80392964940816
 31
0.0
  0
LINE
  5
1EB
330
1F
100
AcDbEntity
  8
0
  6
Continuous
 62
     7
100
AcDbLine
 10
62.91424827988798
 20
85.62821137613685
 30
0.0
 11
62.91424827988798
 21
85.64542351022465
 31
0.0
  0
LINE
  5
1EC
330
1F
100
AcDbEntity
  8
0
  6
Continuous
 62
     7
100
AcDbLine
 10
62.91424827988798
 20
84.68026455455447
 30
0.0
 11
62.91424827988798
 21
85.62821137613685
 31
0.0
  0
LINE
  5
1ED
330
1F
100
AcDbEntity
  8
0
  6
Continuous
 62
     7
100
AcDbLine
 10
62.91424827988798
 20
83.81791719524205
 30
0.0
 11
62.91424827988798
 21
84.68026455455447
 31
0.0
  0
LINE
  5
1EE
330
1F
100
AcDbEntity
  8
0
  6
Continuous
 62
     7
100
AcDbLine
 10
62.91424827988798
 20
85.64542351022465
 30
0.0
 11
62.91424827988798
 21
86.59960922052466
 31
0.0
  0
LINE
  5
1EF
330
1F
100
AcDbEntity
  8
0
  6
Continuous
 62
     7
100
AcDbLine
 10
62.91424827988798
 20
82.22401397683885
 30
0.0
 11
62.91424827988798
 21
82.92771123674027
 31
0.0
  0
LINE
  5
1F0
330
1F
100
AcDbEntity
  8
0
  6
Continuous
 62
     7
100
AcDbLine
 10
62.91424827988798
 20
80.44266384411824
 30
0.0
 11
62.91424827988798
 21
80.90248150929705
 31
0.0
  0
LINE
  5
1F1
330
1F
100
AcDbEntity
  8
0
  6
Continuous
 62
     7
100
AcDbLine
 10
62.91424827988798
 20
79.90270281231685
 30
0.0
 11
62.91424827988798
 21
80.10722798598295
 31
0.0
  0
LINE
  5
1F2
330
1F
100
AcDbEntity
  8
0
  6
Continuous
 62
     7
100
AcDbLine
 10
62.91424827988798
 20
80.20331131135876
 30
0.0
 11
62.91424827988798
 21
80.44266384411824
 31
0.0
  0
LINE
  5
1F3
330
1F
100
AcDbEntity
  8
0
  6
Continuous
 62
     7
100
AcDbLine
 10
62.91424827988798
 20
80.98720407005416
 30
0.0
 11
62.91424827988798
 21
80.90248150929705
 31
0.0
  0
LINE
  5
1F4
330
1F
100
AcDbEntity
  8
0
  6
Continuous
 62
     7
100
AcDbLine
 10
62.91424827988798
 20
80.20331131135876
 30
0.0
 11
62.91424827988798
 21
80.10722798598295
 31
0.0
  0
LINE
  5
1F5
330
1F
100
AcDbEntity
  8
0
  6
Continuous
 62
     7
100
AcDbLine
 10
62.91424827988798
 20
90.29231982741126
 30
0.0
 11
62.91424827988798
 21
89.46536487107434
 31
0.0
  0
LINE
  5
1F6
330
1F
100
AcDbEntity
  8
0
  6
Continuous
 62
     7
100
AcDbLine
 10
62.91424827988798
 20
89.46536487107434
 30
0.0
 11
62.91424827988798
 21
88.53704092011176
 31
0.0
  0
LINE
  5
1F7
330
1F
100
AcDbEntity
  8
0
  6
Continuous
 62
     7
100
AcDbLine
 10
62.91424827988798
 20
93.81675766896674
 30
0.0
 11
62.91424827988798
 21
93.83305235159057
 31
0.0
  0
LINE
  5
1F8
330
1F
100
AcDbEntity
  8
0
  6
Continuous
 62
     7
100
AcDbLine
 10
62.91424827988798
 20
79.83306917298177
 30
0.0
 11
62.91424827988798
 21
79.90270281231685
 31
0.0
  0
LINE
  5
1F9
330
1F
100
AcDbEntity
  8
0
  6
Continuous
 62
     7
100
AcDbLine
 10
68.41424827988797
 20
79.78222330685895
 30
0.0
 11
68.41424827988791
 21
79.82221792106535
 31
0.0
  0
LINE
  5
1FA
330
1F
100
AcDbEntity
  8
0
  6
Continuous
 62
     7
100
AcDbLine
 10
62.91424827988798
 20
79.78222330685887
 30
0.0
 11
62.91424827988798
 21
79.83306917298177
 31
0.0
  0
LINE
  5
1FB
330
1F
100
AcDbEntity
  8
0
  6
Continuous
 62
     7
100
AcDbLine
 10
68.41424827988797
 20
79.78222330685895
 30
0.0
 11
62.91424827988798
 21
79.78222330685887
 31
0.0
  0
LINE
  5
1FC
330
1F
100
AcDbEntity
  8
1
  6
DOT_CENTER
 62
     2
100
AcDbLine
 10
202.2152487015655
 20
110.3996341271163
 30
0.0
 11
202.2152487015655
 21
99.17963412711697
 31
0.0
  0
LINE
  5
1FD
330
1F
100
AcDbEntity
  8
1
  6
DOT_CENTER
 62
     2
100
AcDbLine
 10
207.8252487015652
 20
104.7896341271166
 30
0.0
 11
196.6052487015658
 21
104.7896341271166
 31
0.0
  0
LINE
  5
1FE
330
1F
100
AcDbEntity
  8
0
  6
Continuous
 62
     7
100
AcDbLine
 10
227.7485469077694
 20
83.32918952052216
 30
0.0
 11
227.7376956558529
 21
90.32918110982655
 31
0.0
  0
LINE
  5
1FF
330
1F
100
AcDbEntity
  8
0
  6
Continuous
 62
     7
100
AcDbLine
 10
193.4478130307618
 20
83.77601778536666
 30
0.0
 11
193.444247619418
 21
86.07601502185096
 31
0.0
  0
LINE
  5
200
330
1F
100
AcDbEntity
  8
0
  6
Continuous
 62
     7
100
AcDbLine
 10
217.2017281290239
 20
82.31283884399326
 30
0.0
 11
197.4501334929208
 21
82.28222030304025
 31
0.0
  0
LINE
  5
201
330
1F
100
AcDbEntity
  8
0
  6
Continuous
 62
     7
100
AcDbLine
 10
195.9478100269452
 20
83.77989323248065
 30
0.0
 11
195.9455126896171
 21
85.26187356971536
 31
0.0
  0
LINE
  5
202
330
1F
100
AcDbEntity
  8
0
  6
Continuous
 62
     7
100
AcDbLine
 10
203.77786197773
 20
86.79099764643004
 30
0.0
 11
211.9623807330539
 21
95.34259324187124
 31
0.0
  0
LINE
  5
203
330
1F
100
AcDbEntity
  8
0
  6
Continuous
 62
     7
100
AcDbLine
 10
204.3546637029757
 20
95.30836935596326
 30
0.0
 11
202.4931756145486
 21
90.16919905269344
 31
0.0
  0
LINE
  5
204
330
1F
100
AcDbEntity
  8
0
  6
Continuous
 62
     7
100
AcDbLine
 10
198.7447505225949
 20
89.08280269730295
 30
0.0
 11
199.0020101268406
 21
88.92847351657124
 31
0.0
  0
LINE
  5
205
330
1F
100
AcDbEntity
  8
0
  6
Continuous
 62
     7
100
AcDbLine
 10
206.6019545929347
 20
110.87295652714
 30
0.0
 11
230.2322670260797
 21
93.83305235159057
 31
0.0
  0
LINE
  5
206
330
1F
100
AcDbEntity
  8
0
  6
Continuous
 62
     7
100
AcDbLine
 10
237.032555045633
 20
88.53704092011176
 30
0.0
 11
236.9355630918095
 21
88.51269834642855
 31
0.0
  0
LINE
  5
207
330
1F
100
AcDbEntity
  8
0
  6
Continuous
 62
     7
100
AcDbLine
 10
236.2377410917801
 20
90.30645928827624
 30
0.0
 11
236.2378290746726
 21
90.24970274882975
 31
0.0
  0
LINE
  5
208
330
1F
100
AcDbEntity
  8
0
  6
Continuous
 62
     7
100
AcDbLine
 10
236.2377410917801
 20
90.30645928827624
 30
0.0
 11
236.2133382672723
 21
90.29231982741135
 31
0.0
  0
LINE
  5
209
330
1F
100
AcDbEntity
  8
0
  6
Continuous
 62
     7
100
AcDbLine
 10
236.6366723078565
 20
89.42776052666306
 30
0.0
 11
236.7293325111877
 21
89.46536487107434
 31
0.0
  0
LINE
  5
20A
330
1F
100
AcDbEntity
  8
0
  6
Continuous
 62
     7
100
AcDbLine
 10
235.0285610482153
 20
91.80392964940816
 30
0.0
 11
235.097915291262
 21
91.87597122748235
 31
0.0
  0
LINE
  5
20B
330
1F
100
AcDbEntity
  8
0
  6
Continuous
 62
     7
100
AcDbLine
 10
234.2901782106479
 20
92.42155840490224
 30
0.0
 11
234.34883125315
 21
92.50255112436056
 31
0.0
  0
LINE
  5
20C
330
1F
100
AcDbEntity
  8
0
  6
Continuous
 62
     7
100
AcDbLine
 10
236.2998631946533
 20
90.34245401676105
 30
0.0
 11
236.2377410917801
 21
90.30645928827624
 31
0.0
  0
LINE
  5
20D
330
1F
100
AcDbEntity
  8
0
  6
Continuous
 62
     7
100
AcDbLine
 10
235.7525062277608
 20
91.15123681462487
 30
0.0
 11
235.6738006856212
 21
91.08954858530566
 31
0.0
  0
LINE
  5
20E
330
1F
100
AcDbEntity
  8
0
  6
Continuous
 62
     7
100
AcDbLine
 10
233.4730239549536
 20
92.93041341060484
 30
0.0
 11
233.5198341821559
 21
93.01878084029065
 31
0.0
  0
LINE
  5
20F
330
1F
100
AcDbEntity
  8
0
  6
Continuous
 62
     7
100
AcDbLine
 10
232.6270595632963
 20
93.41461255105466
 30
0.0
 11
232.5930032592207
 21
93.32059038264364
 31
0.0
  0
LINE
  5
210
330
1F
100
AcDbEntity
  8
0
  6
Continuous
 62
     7
100
AcDbLine
 10
231.6672447252826
 20
93.58449497007786
 30
0.0
 11
231.6878842390115
 21
93.68234184265447
 31
0.0
  0
LINE
  5
211
330
1F
100
AcDbEntity
  8
0
  6
Continuous
 62
     7
100
AcDbLine
 10
228.7361442754798
 20
91.33073008714376
 30
0.0
 11
230.2361424731959
 21
91.33305535541166
 31
0.0
  0
LINE
  5
212
330
1F
100
AcDbEntity
  8
0
  6
Continuous
 62
     7
100
AcDbLine
 10
230.7205881886925
 20
93.81675766896674
 30
0.0
 11
230.7137671899681
 21
93.71699057029986
 31
0.0
  0
LINE
  5
213
330
1F
100
AcDbEntity
  8
0
  6
Continuous
 62
     7
100
AcDbLine
 10
230.2324220439643
 20
93.73305247174335
 30
0.0
 11
230.2322670260797
 21
93.83305235159057
 31
0.0
  0
LINE
  5
214
330
1F
100
AcDbEntity
  8
0
  6
Continuous
 62
     7
100
AcDbLine
 10
236.9038591142679
 20
84.68026455455455
 30
0.0
 11
236.8087056737498
 21
84.71101878609355
 31
0.0
  0
LINE
  5
215
330
1F
100
AcDbEntity
  8
0
  6
Continuous
 62
     7
100
AcDbLine
 10
237.0401409907372
 20
85.64542351022476
 30
0.0
 11
237.1386485662842
 21
85.62821137613685
 31
0.0
  0
LINE
  5
216
330
1F
100
AcDbEntity
  8
0
  6
Continuous
 62
     7
100
AcDbLine
 10
235.9694519136191
 20
82.98350194424805
 30
0.0
 11
236.0524422561643
 21
82.92771123674035
 31
0.0
  0
LINE
  5
217
330
1F
100
AcDbEntity
  8
0
  6
Continuous
 62
     7
100
AcDbLine
 10
236.5394259183539
 20
83.77421946238636
 30
0.0
 11
236.4494786663489
 21
83.81791719524205
 31
0.0
  0
LINE
  5
218
330
1F
100
AcDbEntity
  8
0
  6
Continuous
 62
     7
100
AcDbLine
 10
230.2500940828029
 20
82.33306616916315
 30
0.0
 11
228.7500958850866
 21
82.33074090089525
 31
0.0
  0
LINE
  5
219
330
1F
100
AcDbEntity
  8
0
  6
Continuous
 62
     7
100
AcDbLine
 10
235.4523867107538
 20
82.15721619733426
 30
0.0
 11
235.3779685902799
 21
82.22401397683896
 31
0.0
  0
LINE
  5
21A
330
1F
100
AcDbEntity
  8
0
  6
Continuous
 62
     7
100
AcDbLine
 10
230.2539695299126
 20
79.83306917298177
 30
0.0
 11
230.2538145120281
 21
79.93306905282896
 31
0.0
  0
LINE
  5
21B
330
1F
100
AcDbEntity
  8
0
  6
Continuous
 62
     7
100
AcDbLine
 10
231.2140036598175
 20
80.00170792588796
 30
0.0
 11
231.2280744624529
 21
79.90270281231685
 31
0.0
  0
LINE
  5
21C
330
1F
100
AcDbEntity
  8
0
  6
Continuous
 62
     7
100
AcDbLine
 10
232.155295628016
 20
80.20331131135876
 30
0.0
 11
232.1830083432336
 21
80.10722798598295
 31
0.0
  0
LINE
  5
21D
330
1F
100
AcDbEntity
  8
0
  6
Continuous
 62
     7
100
AcDbLine
 10
233.1001844704867
 20
80.44266384411824
 30
0.0
 11
233.0593692391655
 21
80.53395522866356
 31
0.0
  0
LINE
  5
21E
330
1F
100
AcDbEntity
  8
0
  6
Continuous
 62
     7
100
AcDbLine
 10
233.9086277287938
 20
80.98720407005416
 30
0.0
 11
233.9617510541677
 21
80.90248150929705
 31
0.0
  0
LINE
  5
21F
330
1F
100
AcDbEntity
  8
0
  6
Continuous
 62
     7
100
AcDbLine
 10
234.6865412464176
 20
81.55423586239556
 30
0.0
 11
234.7509386807425
 21
81.47773115370146
 31
0.0
  0
LINE
  5
220
330
1F
100
AcDbEntity
  8
0
  6
Continuous
 62
     7
100
AcDbLine
 10
237.1392799921199
 20
86.60294424254985
 30
0.0
 11
237.2392243647884
 21
86.59960922052466
 31
0.0
  0
LINE
  5
221
330
1F
100
AcDbEntity
  8
0
  6
Continuous
 62
     7
100
AcDbLine
 10
237.2036289162658
 20
87.57555093362575
 30
0.0
 11
237.1041930500048
 21
87.56494393117796
 31
0.0
  0
LINE
  5
222
330
1F
100
AcDbEntity
  8
0
  6
Continuous
 62
     7
100
AcDbLine
 10
186.7152487015645
 20
114.539634127115
 30
0.0
 11
200.7152487015645
 21
114.5396341271166
 31
0.0
  0
LINE
  5
223
330
1F
100
AcDbEntity
  8
0
  6
Continuous
 62
     7
100
AcDbLine
 10
217.7152487015646
 20
113.5396341271185
 30
0.0
 11
203.7152487015646
 21
113.5396341271169
 31
0.0
  0
LINE
  5
224
330
1F
100
AcDbEntity
  8
0
  6
Continuous
 62
     7
100
AcDbLine
 10
203.7152487015645
 20
114.5396341271169
 30
0.0
 11
217.7152487015645
 21
114.5396341271185
 31
0.0
  0
LINE
  5
225
330
1F
100
AcDbEntity
  8
0
  6
Continuous
 62
     7
100
AcDbLine
 10
223.7152487012505
 20
113.5396341274333
 30
0.0
 11
223.7152487015645
 21
114.5396341271191
 31
0.0
  0
LINE
  5
226
330
1F
100
AcDbEntity
  8
0
  6
Continuous
 62
     7
100
AcDbLine
 10
223.7152487012505
 20
113.5396341274333
 30
0.0
 11
217.7152487015646
 21
113.5396341271185
 31
0.0
  0
LINE
  5
227
330
1F
100
AcDbEntity
  8
0
  6
Continuous
 62
     7
100
AcDbLine
 10
217.7152487015645
 20
114.5396341271185
 30
0.0
 11
223.7152487015645
 21
114.5396341271191
 31
0.0
  0
LINE
  5
228
330
1F
100
AcDbEntity
  8
0
  6
Continuous
 62
     7
100
AcDbLine
 10
180.7152487015645
 20
114.5396341271143
 30
0.0
 11
180.7152487015646
 21
113.5396341271143
 31
0.0
  0
LINE
  5
229
330
1F
100
AcDbEntity
  8
0
  6
Continuous
 62
     7
100
AcDbLine
 10
180.7152487015645
 20
114.5396341271143
 30
0.0
 11
186.7152487015645
 21
114.539634127115
 31
0.0
  0
LINE
  5
22A
330
1F
100
AcDbEntity
  8
0
  6
Continuous
 62
     7
100
AcDbLine
 10
200.7152487015646
 20
113.5396341271166
 30
0.0
 11
186.7152487015646
 21
113.539634127115
 31
0.0
  0
LINE
  5
22B
330
1F
100
AcDbEntity
  8
0
  6
Continuous
 62
     7
100
AcDbLine
 10
186.7152487015646
 20
113.539634127115
 30
0.0
 11
180.7152487015646
 21
113.5396341271143
 31
0.0
  0
LINE
  5
22C
330
1F
100
AcDbEntity
  8
0
  6
Continuous
 62
     7
100
AcDbLine
 10
203.7152487015646
 20
113.5396341271169
 30
0.0
 11
203.7152487015647
 21
112.8396341271169
 31
0.0
  0
LINE
  5
22D
330
1F
100
AcDbEntity
  8
0
  6
Continuous
 62
     7
100
AcDbLine
 10
203.7152487015647
 20
112.7396341271169
 30
0.0
 11
203.7152487015648
 21
112.1381033554663
 31
0.0
  0
LINE
  5
22E
330
1F
100
AcDbEntity
  8
0
  6
Continuous
 62
     7
100
AcDbLine
 10
203.7152487015647
 20
112.8396341271169
 30
0.0
 11
203.7152487015647
 21
112.7396341271169
 31
0.0
  0
LINE
  5
22F
330
1F
100
AcDbEntity
  8
0
  6
Continuous
 62
     7
100
AcDbLine
 10
200.7152487015648
 20
112.1381033554661
 30
0.0
 11
200.7152487015647
 21
112.7396341271166
 31
0.0
  0
LINE
  5
230
330
1F
100
AcDbEntity
  8
0
  6
Continuous
 62
     7
100
AcDbLine
 10
200.7152487015647
 20
112.8396341271166
 30
0.0
 11
200.7152487015646
 21
113.5396341271166
 31
0.0
  0
LINE
  5
231
330
1F
100
AcDbEntity
  8
0
  6
Continuous
 62
     7
100
AcDbLine
 10
200.7152487015647
 20
112.7396341271166
 30
0.0
 11
200.7152487015647
 21
112.8396341271166
 31
0.0
  0
LINE
  5
232
330
1F
100
AcDbEntity
  8
0
  6
Continuous
 62
     7
100
AcDbLine
 10
186.7152487015648
 20
112.039634127115
 30
0.0
 11
200.2949622645978
 21
112.0396341271164
 31
0.0
  0
LINE
  5
233
330
1F
100
AcDbEntity
  8
0
  6
Continuous
 62
     7
100
AcDbLine
 10
197.1706971853249
 20
110.3396341271161
 30
0.0
 11
186.715248701565
 21
110.339634127115
 31
0.0
  0
LINE
  5
234
330
1F
100
AcDbEntity
  8
0
  6
Continuous
 62
     7
100
AcDbLine
 10
198.0694677136207
 20
111.0396341271162
 30
0.0
 11
186.7152487015649
 21
111.039634127115
 31
0.0
  0
LINE
  5
235
330
1F
100
AcDbEntity
  8
0
  6
Continuous
 62
     7
100
AcDbLine
 10
204.1355351385316
 20
112.0396341271169
 30
0.0
 11
217.7152487015648
 21
112.0396341271185
 31
0.0
  0
LINE
  5
236
330
1F
100
AcDbEntity
  8
0
  6
Continuous
 62
     7
100
AcDbLine
 10
217.7152487015647
 20
112.7396341271185
 30
0.0
 11
203.7152487015647
 21
112.7396341271169
 31
0.0
  0
LINE
  5
237
330
1F
100
AcDbEntity
  8
0
  6
Continuous
 62
     7
100
AcDbLine
 10
203.7152487015647
 20
112.8396341271169
 30
0.0
 11
217.7152487015647
 21
112.8396341271184
 31
0.0
  0
LINE
  5
238
330
1F
100
AcDbEntity
  8
0
  6
Continuous
 62
     7
100
AcDbLine
 10
223.015248701879
 20
110.339634126805
 30
0.0
 11
223.015248701879
 21
110.2396341274332
 31
0.0
  0
LINE
  5
239
330
1F
100
AcDbEntity
  8
0
  6
Continuous
 62
     7
100
AcDbLine
 10
181.4152487012506
 20
112.7396341274285
 30
0.0
 11
181.4152487012506
 21
112.8396341268003
 31
0.0
  0
LINE
  5
23A
330
1F
100
AcDbEntity
  8
0
  6
Continuous
 62
     7
100
AcDbLine
 10
186.7152487015647
 20
112.739634127115
 30
0.0
 11
200.7152487015647
 21
112.7396341271166
 31
0.0
  0
LINE
  5
23B
330
1F
100
AcDbEntity
  8
0
  6
Continuous
 62
     7
100
AcDbLine
 10
223.0152487018788
 20
112.839634126805
 30
0.0
 11
223.0152487018788
 21
112.7396341274332
 31
0.0
  0
LINE
  5
23C
330
1F
100
AcDbEntity
  8
0
  6
Continuous
 62
     7
100
AcDbLine
 10
200.7152487015647
 20
112.8396341271166
 30
0.0
 11
186.7152487015647
 21
112.839634127115
 31
0.0
  0
LINE
  5
23D
330
1F
100
AcDbEntity
  8
0
  6
Continuous
 62
     7
100
AcDbLine
 10
217.7152487015648
 20
111.0396341271185
 30
0.0
 11
206.3610296895089
 21
111.0396341271172
 31
0.0
  0
LINE
  5
23E
330
1F
100
AcDbEntity
  8
0
  6
Continuous
 62
     7
100
AcDbLine
 10
186.715248701565
 20
110.239634127115
 30
0.0
 11
197.0628220887931
 21
110.2396341271161
 31
0.0
  0
LINE
  5
23F
330
1F
100
AcDbEntity
  8
0
  6
Continuous
 62
     7
100
AcDbLine
 10
217.715248701565
 20
110.2396341271185
 30
0.0
 11
207.4802228055532
 21
110.2396341271173
 31
0.0
  0
LINE
  5
240
330
1F
100
AcDbEntity
  8
0
  6
Continuous
 62
     7
100
AcDbLine
 10
207.3415464832587
 20
110.3396341271173
 30
0.0
 11
217.715248701565
 21
110.3396341271184
 31
0.0
  0
LINE
  5
241
330
1F
100
AcDbEntity
  8
0
  6
Continuous
 62
     7
100
AcDbLine
 10
181.4152487012509
 20
110.2396341274285
 30
0.0
 11
181.4152487012509
 21
110.3396341268003
 31
0.0
  0
LINE
  5
242
330
1F
100
AcDbEntity
  8
0
  6
Continuous
 62
     7
100
AcDbLine
 10
181.4152487012506
 20
112.7396341274285
 30
0.0
 11
180.7152487015648
 21
112.0396341271143
 31
0.0
  0
LINE
  5
243
330
1F
100
AcDbEntity
  8
0
  6
Continuous
 62
     7
100
AcDbLine
 10
203.7152487015644
 20
115.3396341271169
 30
0.0
 11
217.7152487015644
 21
115.3396341271184
 31
0.0
  0
LINE
  5
244
330
1F
100
AcDbEntity
  8
0
  6
Continuous
 62
     7
100
AcDbLine
 10
223.0152487018785
 20
115.339634126805
 30
0.0
 11
223.7152487015643
 21
116.0396341271191
 31
0.0
  0
LINE
  5
245
330
1F
100
AcDbEntity
  8
0
  6
Continuous
 62
     7
100
AcDbLine
 10
217.7152487015643
 20
116.0396341271185
 30
0.0
 11
203.7152487015643
 21
116.0396341271169
 31
0.0
  0
LINE
  5
246
330
1F
100
AcDbEntity
  8
0
  6
Continuous
 62
     7
100
AcDbLine
 10
217.7152487015645
 20
115.2396341271185
 30
0.0
 11
203.7152487015645
 21
115.2396341271169
 31
0.0
  0
LINE
  5
247
330
1F
100
AcDbEntity
  8
0
  6
Continuous
 62
     7
100
AcDbLine
 10
217.7152487015644
 20
115.3396341271184
 30
0.0
 11
223.0152487018785
 21
115.339634126805
 31
0.0
  0
LINE
  5
248
330
1F
100
AcDbEntity
  8
0
  6
Continuous
 62
     7
100
AcDbLine
 10
223.0152487018785
 20
115.2396341274332
 30
0.0
 11
217.7152487015645
 21
115.2396341271185
 31
0.0
  0
LINE
  5
249
330
1F
100
AcDbEntity
  8
0
  6
Continuous
 62
     7
100
AcDbLine
 10
223.7152487015643
 20
116.0396341271191
 30
0.0
 11
217.7152487015643
 21
116.0396341271185
 31
0.0
  0
LINE
  5
24A
330
1F
100
AcDbEntity
  8
0
  6
Continuous
 62
     7
100
AcDbLine
 10
223.0152487018785
 20
115.339634126805
 30
0.0
 11
223.0152487018785
 21
115.2396341274332
 31
0.0
  0
LINE
  5
24B
330
1F
100
AcDbEntity
  8
0
  6
Continuous
 62
     7
100
AcDbLine
 10
203.7152487015643
 20
116.0396341271169
 30
0.0
 11
203.7152487015644
 21
115.3396341271169
 31
0.0
  0
LINE
  5
24C
330
1F
100
AcDbEntity
  8
0
  6
Continuous
 62
     7
100
AcDbLine
 10
203.7152487015644
 20
115.3396341271169
 30
0.0
 11
203.7152487015645
 21
115.2396341271169
 31
0.0
  0
LINE
  5
24D
330
1F
100
AcDbEntity
  8
0
  6
Continuous
 62
     7
100
AcDbLine
 10
203.7152487015645
 20
115.2396341271169
 30
0.0
 11
203.7152487015645
 21
114.5396341271169
 31
0.0
  0
LINE
  5
24E
330
1F
100
AcDbEntity
  8
0
  6
Continuous
 62
     7
100
AcDbLine
 10
200.7152487015643
 20
116.0396341271166
 30
0.0
 11
186.7152487015643
 21
116.039634127115
 31
0.0
  0
LINE
  5
24F
330
1F
100
AcDbEntity
  8
0
  6
Continuous
 62
     7
100
AcDbLine
 10
200.7152487015644
 20
115.3396341271166
 30
0.0
 11
200.7152487015643
 21
116.0396341271166
 31
0.0
  0
LINE
  5
250
330
1F
100
AcDbEntity
  8
0
  6
Continuous
 62
     7
100
AcDbLine
 10
200.7152487015645
 20
114.5396341271166
 30
0.0
 11
200.7152487015645
 21
115.2396341271166
 31
0.0
  0
LINE
  5
251
330
1F
100
AcDbEntity
  8
0
  6
Continuous
 62
     7
100
AcDbLine
 10
200.7152487015645
 20
115.2396341271166
 30
0.0
 11
200.7152487015644
 21
115.3396341271166
 31
0.0
  0
LINE
  5
252
330
1F
100
AcDbEntity
  8
0
  6
Continuous
 62
     7
100
AcDbLine
 10
186.7152487015644
 20
115.239634127115
 30
0.0
 11
200.7152487015645
 21
115.2396341271166
 31
0.0
  0
LINE
  5
253
330
1F
100
AcDbEntity
  8
0
  6
Continuous
 62
     7
100
AcDbLine
 10
200.7152487015644
 20
115.3396341271166
 30
0.0
 11
186.7152487015644
 21
115.339634127115
 31
0.0
  0
LINE
  5
254
330
1F
100
AcDbEntity
  8
0
  6
Continuous
 62
     7
100
AcDbLine
 10
181.4152487012503
 20
115.2396341274285
 30
0.0
 11
181.4152487012503
 21
115.3396341268003
 31
0.0
  0
LINE
  5
255
330
1F
100
AcDbEntity
  8
0
  6
Continuous
 62
     7
100
AcDbLine
 10
220.2152487015598
 20
155.2896341271188
 30
0.0
 11
184.2152487015599
 21
155.2896341271147
 31
0.0
  0
LINE
  5
256
330
1F
100
AcDbEntity
  8
0
  6
Continuous
 62
     7
100
AcDbLine
 10
217.7152487015614
 20
142.2896341271185
 30
0.0
 11
186.7152487015614
 21
142.289634127115
 31
0.0
  0
LINE
  5
257
330
1F
100
AcDbEntity
  8
0
  6
Continuous
 62
     7
100
AcDbLine
 10
184.2152487015599
 20
155.2896341271147
 30
0.0
 11
184.2152487015614
 21
142.2896341271147
 31
0.0
  0
LINE
  5
258
330
1F
100
AcDbEntity
  8
0
  6
Continuous
 62
     7
100
AcDbLine
 10
220.2152487015598
 20
155.2896341271188
 30
0.0
 11
220.2152487015614
 21
142.2896341271188
 31
0.0
  0
LINE
  5
259
330
1F
100
AcDbEntity
  8
0
  6
Continuous
 62
     7
100
AcDbLine
 10
217.7152487015614
 20
142.2896341271185
 30
0.0
 11
220.2152487015614
 21
142.2896341271188
 31
0.0
  0
LINE
  5
25A
330
1F
100
AcDbEntity
  8
0
  6
Continuous
 62
     7
100
AcDbLine
 10
220.2152487015614
 20
142.2896341271188
 30
0.0
 11
220.7152487115153
 21
142.2896340989868
 31
0.0
  0
LINE
  5
25B
330
1F
100
AcDbEntity
  8
0
  6
Continuous
 62
     7
100
AcDbLine
 10
223.7152487015659
 20
102.2896341271191
 30
0.0
 11
218.5049904279576
 21
102.2896341271186
 31
0.0
  0
LINE
  5
25C
330
1F
100
AcDbEntity
  8
0
  6
Continuous
 62
     7
100
AcDbLine
 10
208.4509570616139
 20
109.5396341271175
 30
0.0
 11
217.7152487015651
 21
109.5396341271185
 31
0.0
  0
LINE
  5
25D
330
1F
100
AcDbEntity
  8
0
  6
Continuous
 62
     7
100
AcDbLine
 10
203.2407504845012
 20
97.28963412711687
 30
0.0
 11
202.2268750429045
 21
97.28964313857625
 31
0.0
  0
LINE
  5
25E
330
1F
100
AcDbEntity
  8
0
  6
Continuous
 62
     7
100
AcDbLine
 10
186.7152487015651
 20
109.539634127115
 30
0.0
 11
196.4111553184431
 21
109.5396341271161
 31
0.0
  0
LINE
  5
25F
330
1F
100
AcDbEntity
  8
0
  6
Continuous
 62
     7
100
AcDbLine
 10
202.2152487015664
 20
97.28963412711664
 30
0.0
 11
186.7152487015665
 21
97.28963412711497
 31
0.0
  0
LINE
  5
260
330
1F
100
AcDbEntity
  8
0
  6
Continuous
 62
     7
100
AcDbLine
 10
186.7152487015665
 20
97.28963412711497
 30
0.0
 11
180.7142487015665
 21
97.28963412711425
 31
0.0
  0
LINE
  5
261
330
1F
100
AcDbEntity
  8
0
  6
Continuous
 62
     7
100
AcDbLine
 10
186.7152487015659
 20
102.289634127115
 30
0.0
 11
180.7152487015659
 21
102.2896341271143
 31
0.0
  0
LINE
  5
262
330
1F
100
AcDbEntity
  8
0
  6
Continuous
 62
     7
100
AcDbLine
 10
181.4152487012503
 20
115.2396341274285
 30
0.0
 11
180.7152487015645
 21
114.5396341271143
 31
0.0
  0
LINE
  5
263
330
1F
100
AcDbEntity
  8
0
  6
Continuous
 62
     7
100
AcDbLine
 10
181.4152487012509
 20
110.2396341274285
 30
0.0
 11
180.7152487018792
 21
109.5396341268002
 31
0.0
  0
LINE
  5
264
330
1F
100
AcDbEntity
  8
0
  6
Continuous
 62
     7
100
AcDbLine
 10
181.4152487012509
 20
110.2396341274285
 30
0.0
 11
186.715248701565
 21
110.239634127115
 31
0.0
  0
LINE
  5
265
330
1F
100
AcDbEntity
  8
0
  6
Continuous
 62
     7
100
AcDbLine
 10
186.715248701565
 20
110.339634127115
 30
0.0
 11
181.4152487012509
 21
110.3396341268003
 31
0.0
  0
LINE
  5
266
330
1F
100
AcDbEntity
  8
0
  6
Continuous
 62
     7
100
AcDbLine
 10
186.7152487015649
 20
111.039634127115
 30
0.0
 11
180.715248701879
 21
111.0396341274283
 31
0.0
  0
LINE
  5
267
330
1F
100
AcDbEntity
  8
0
  6
Continuous
 62
     7
100
AcDbLine
 10
180.7152487018792
 20
109.5396341268002
 30
0.0
 11
186.7152487015651
 21
109.539634127115
 31
0.0
  0
LINE
  5
268
330
1F
100
AcDbEntity
  8
0
  6
Continuous
 62
     7
100
AcDbLine
 10
181.4152487012509
 20
110.3396341268003
 30
0.0
 11
180.715248701879
 21
111.0396341274283
 31
0.0
  0
LINE
  5
269
330
1F
100
AcDbEntity
  8
0
  6
Continuous
 62
     7
100
AcDbLine
 10
180.7152487018792
 20
109.5396341268002
 30
0.0
 11
180.7152487015659
 21
102.2896341271143
 31
0.0
  0
LINE
  5
26A
330
1F
100
AcDbEntity
  8
0
  6
Continuous
 62
     7
100
AcDbLine
 10
181.4152487012503
 20
115.3396341268003
 30
0.0
 11
180.7152487015643
 21
116.0396341271143
 31
0.0
  0
LINE
  5
26B
330
1F
100
AcDbEntity
  8
0
  6
Continuous
 62
     7
100
AcDbLine
 10
181.4152487012506
 20
112.8396341268003
 30
0.0
 11
180.7152487015646
 21
113.5396341271143
 31
0.0
  0
LINE
  5
26C
330
1F
100
AcDbEntity
  8
0
  6
Continuous
 62
     7
100
AcDbLine
 10
180.7152487015648
 20
112.0396341271143
 30
0.0
 11
180.715248701879
 21
111.0396341274283
 31
0.0
  0
LINE
  5
26D
330
1F
100
AcDbEntity
  8
0
  6
Continuous
 62
     7
100
AcDbLine
 10
186.7152487015647
 20
112.839634127115
 30
0.0
 11
181.4152487012506
 21
112.8396341268003
 31
0.0
  0
LINE
  5
26E
330
1F
100
AcDbEntity
  8
0
  6
Continuous
 62
     7
100
AcDbLine
 10
180.7152487015617
 20
139.2896341271143
 30
0.0
 11
180.7152487015643
 21
116.0396341271143
 31
0.0
  0
LINE
  5
26F
330
1F
100
AcDbEntity
  8
0
  6
Continuous
 62
     7
100
AcDbLine
 10
180.7152487015648
 20
112.0396341271143
 30
0.0
 11
186.7152487015648
 21
112.039634127115
 31
0.0
  0
LINE
  5
270
330
1F
100
AcDbEntity
  8
0
  6
Continuous
 62
     7
100
AcDbLine
 10
181.4152487012506
 20
112.7396341274285
 30
0.0
 11
186.7152487015647
 21
112.739634127115
 31
0.0
  0
LINE
  5
271
330
1F
100
AcDbEntity
  8
0
  6
Continuous
 62
     7
100
AcDbLine
 10
181.4152487012503
 20
115.2396341274285
 30
0.0
 11
186.7152487015644
 21
115.239634127115
 31
0.0
  0
LINE
  5
272
330
1F
100
AcDbEntity
  8
0
  6
Continuous
 62
     7
100
AcDbLine
 10
186.7152487015644
 20
115.339634127115
 30
0.0
 11
181.4152487012503
 21
115.3396341268003
 31
0.0
  0
LINE
  5
273
330
1F
100
AcDbEntity
  8
0
  6
Continuous
 62
     7
100
AcDbLine
 10
186.7152487015643
 20
116.039634127115
 30
0.0
 11
180.7152487015643
 21
116.0396341271143
 31
0.0
  0
LINE
  5
274
330
1F
100
AcDbEntity
  8
0
  6
Continuous
 62
     7
100
AcDbLine
 10
180.7142487015665
 20
97.28963412711425
 30
0.0
 11
180.7152487015659
 21
102.2896341271143
 31
0.0
  0
LINE
  5
275
330
1F
100
AcDbEntity
  8
0
  6
Continuous
 62
     7
100
AcDbLine
 10
184.2152487015614
 20
142.2896341271147
 30
0.0
 11
186.7152487015614
 21
142.289634127115
 31
0.0
  0
LINE
  5
276
330
1F
100
AcDbEntity
  8
0
  6
Continuous
 62
     7
100
AcDbLine
 10
183.7152487188351
 20
142.2896341019291
 30
0.0
 11
184.2152487015614
 21
142.2896341271147
 31
0.0
  0
LINE
  5
277
330
1F
100
AcDbEntity
  8
0
  6
Continuous
 62
     7
100
AcDbLine
 10
223.015248701879
 20
110.339634126805
 30
0.0
 11
223.7152487012508
 21
111.0396341274333
 31
0.0
  0
LINE
  5
278
330
1F
100
AcDbEntity
  8
0
  6
Continuous
 62
     7
100
AcDbLine
 10
223.015248701879
 20
110.2396341274332
 30
0.0
 11
223.7152487015651
 21
109.5396341271191
 31
0.0
  0
LINE
  5
279
330
1F
100
AcDbEntity
  8
0
  6
Continuous
 62
     7
100
AcDbLine
 10
217.7152487015651
 20
109.5396341271185
 30
0.0
 11
223.7152487015651
 21
109.5396341271191
 31
0.0
  0
LINE
  5
27A
330
1F
100
AcDbEntity
  8
0
  6
Continuous
 62
     7
100
AcDbLine
 10
223.7152487012508
 20
111.0396341274333
 30
0.0
 11
217.7152487015648
 21
111.0396341271185
 31
0.0
  0
LINE
  5
27B
330
1F
100
AcDbEntity
  8
0
  6
Continuous
 62
     7
100
AcDbLine
 10
217.715248701565
 20
110.3396341271184
 30
0.0
 11
223.015248701879
 21
110.339634126805
 31
0.0
  0
LINE
  5
27C
330
1F
100
AcDbEntity
  8
0
  6
Continuous
 62
     7
100
AcDbLine
 10
223.015248701879
 20
110.2396341274332
 30
0.0
 11
217.715248701565
 21
110.2396341271185
 31
0.0
  0
LINE
  5
27D
330
1F
100
AcDbEntity
  8
0
  6
Continuous
 62
     7
100
AcDbLine
 10
217.7152487015647
 20
112.8396341271184
 30
0.0
 11
223.0152487018788
 21
112.839634126805
 31
0.0
  0
LINE
  5
27E
330
1F
100
AcDbEntity
  8
0
  6
Continuous
 62
     7
100
AcDbLine
 10
223.7152487012508
 20
111.0396341274333
 30
0.0
 11
223.7152487015648
 21
112.0396341271191
 31
0.0
  0
LINE
  5
27F
330
1F
100
AcDbEntity
  8
0
  6
Continuous
 62
     7
100
AcDbLine
 10
217.7152487015648
 20
112.0396341271185
 30
0.0
 11
223.7152487015648
 21
112.0396341271191
 31
0.0
  0
LINE
  5
280
330
1F
100
AcDbEntity
  8
0
  6
Continuous
 62
     7
100
AcDbLine
 10
223.0152487018788
 20
112.7396341274332
 30
0.0
 11
217.7152487015647
 21
112.7396341271185
 31
0.0
  0
LINE
  5
281
330
1F
100
AcDbEntity
  8
0
  6
Continuous
 62
     7
100
AcDbLine
 10
223.0152487018788
 20
112.7396341274332
 30
0.0
 11
223.7152487015648
 21
112.0396341271191
 31
0.0
  0
LINE
  5
282
330
1F
100
AcDbEntity
  8
0
  6
Continuous
 62
     7
100
AcDbLine
 10
195.1441808897003
 20
102.2896341271159
 30
0.0
 11
186.7152487015659
 21
102.289634127115
 31
0.0
  0
LINE
  5
283
330
1F
100
AcDbEntity
  8
0
  6
Continuous
 62
     7
100
AcDbLine
 10
223.0152487018788
 20
112.839634126805
 30
0.0
 11
223.7152487012505
 21
113.5396341274333
 31
0.0
  0
LINE
  5
284
330
1F
100
AcDbEntity
  8
0
  6
Continuous
 62
     7
100
AcDbLine
 10
223.0152487018785
 20
115.2396341274332
 30
0.0
 11
223.7152487015645
 21
114.5396341271191
 31
0.0
  0
LINE
  5
285
330
1F
100
AcDbEntity
  8
0
  6
Continuous
 62
     7
100
AcDbLine
 10
223.7152487015659
 20
102.2896341271191
 30
0.0
 11
223.7152487015651
 21
109.5396341271191
 31
0.0
  0
LINE
  5
286
330
1F
100
AcDbEntity
  8
0
  6
Continuous
 62
     7
100
AcDbLine
 10
223.7152487015643
 20
116.0396341271191
 30
0.0
 11
223.7152487015617
 21
139.2896341271191
 31
0.0
  0
LINE
  5
287
330
1F
100
AcDbEntity
  8
0
  6
Continuous
 62
     7
100
AcDbLine
 10
223.7162487015663
 20
98.53177684666315
 30
0.0
 11
223.7152487015659
 21
102.2896341271191
 31
0.0
  0
ARC
  5
2BE
330
1F
100
AcDbEntity
  8
1
  6
DASHED
 62
     2
100
AcDbCircle
 10
202.2152487015655
 20
104.7896341271166
 30
0.0
 40
40.28663395418565
100
AcDbArc
 50
309.4937725804909
 51
0.0
  0
ARC
  5
2BF
330
1F
100
AcDbEntity
  8
0
  6
Continuous
 62
     7
100
AcDbCircle
 10
202.2152487015655
 20
104.7896341271166
 30
0.0
 40
2.5
100
AcDbArc
 50
90.00000000000522
 51
209.9152846456401
  0
ARC
  5
2C0
330
1F
100
AcDbEntity
  8
0
  6
Continuous
 62
     7
100
AcDbCircle
 10
202.2152487015655
 20
104.7896341271166
 30
0.0
 40
2.5
100
AcDbArc
 50
90.00000000000522
 51
209.9152846456401
  0
ARC
  5
2C1
330
1F
100
AcDbEntity
  8
1
  6
Continuous
 62
     7
100
AcDbCircle
 10
202.2152487015655
 20
104.7896341271166
 30
0.0
 40
2.499999999999832
100
AcDbArc
 50
209.9152846456401
 51
317.2451756972816
  0
ARC
  5
2C2
330
1F
100
AcDbEntity
  8
0
  6
Continuous
 62
     7
100
AcDbCircle
 10
97.41424827988797
 20
127.5296341271192
 30
0.0
 40
0.25
100
AcDbArc
 50
0.0
 51
180.0
  0
ARC
  5
2C3
330
1F
100
AcDbEntity
  8
0
  6
Continuous
 62
     7
100
AcDbCircle
 10
98.41424827988797
 20
128.0959675159834
 30
0.0
 40
0.25
100
AcDbArc
 50
0.0
 51
180.0
  0
ARC
  5
2C4
330
1F
100
AcDbEntity
  8
0
  6
Continuous
 62
     7
100
AcDbCircle
 10
99.41424827988797
 20
128.6726341826501
 30
0.0
 40
0.2499999999999446
100
AcDbArc
 50
36.74339513782461
 51
180.0
  0
ARC
  5
2C5
330
1F
100
AcDbEntity
  8
0
  6
Continuous
 62
     7
100
AcDbCircle
 10
98.41424827988797
 20
124.983300738255
 30
0.0
 40
0.25
100
AcDbArc
 50
180.0
 51
240.0293843500035
  0
ARC
  5
2C6
330
1F
100
AcDbEntity
  8
0
  6
Continuous
 62
     7
100
AcDbCircle
 10
103.414248279888
 20
126.5396341271191
 30
0.0
 40
0.25
100
AcDbArc
 50
270.0
 51
90.0
  0
ARC
  5
2C7
330
1F
100
AcDbEntity
  8
0
  6
Continuous
 62
     7
100
AcDbCircle
 10
101.414248279888
 20
124.4066340715883
 30
0.0
 40
0.25
100
AcDbArc
 50
180.0
 51
0.0
  0
ARC
  5
2C8
330
1F
100
AcDbEntity
  8
0
  6
Continuous
 62
     7
100
AcDbCircle
 10
102.414248279888
 20
128.0959675159834
 30
0.0
 40
0.2499999999999862
100
AcDbArc
 50
60.02938435001195
 51
180.0
  0
ARC
  5
2C9
330
1F
100
AcDbEntity
  8
0
  6
Continuous
 62
     7
100
AcDbCircle
 10
103.414248279888
 20
125.5599674049217
 30
0.0
 40
0.2500000000001586
100
AcDbArc
 50
299.9706156499653
 51
119.9706156500176
  0
ARC
  5
2CA
330
1F
100
AcDbEntity
  8
0
  6
Continuous
 62
     7
100
AcDbCircle
 10
103.414248279888
 20
127.5193008493168
 30
0.0
 40
0.2500000000002206
100
AcDbArc
 50
240.0293843500166
 51
60.02938435000056
  0
ARC
  5
2CB
330
1F
100
AcDbEntity
  8
0
  6
Continuous
 62
     7
100
AcDbCircle
 10
97.41424827988797
 20
125.5496341271192
 30
0.0
 40
0.25
100
AcDbArc
 50
180.0
 51
0.0
  0
ARC
  5
2CC
330
1F
100
AcDbEntity
  8
0
  6
Continuous
 62
     7
100
AcDbCircle
 10
99.41424827988797
 20
125.5496341271192
 30
0.0
 40
0.25
100
AcDbArc
 50
180.0
 51
0.0
  0
ARC
  5
2CD
330
1F
100
AcDbEntity
  8
0
  6
Continuous
 62
     7
100
AcDbCircle
 10
100.414248279888
 20
123.8299674049216
 30
0.0
 40
0.2500000000000482
100
AcDbArc
 50
240.0293843499938
 51
60.02938435002333
  0
ARC
  5
2CE
330
1F
100
AcDbEntity
  8
0
  6
Continuous
 62
     7
100
AcDbCircle
 10
102.414248279888
 20
124.983300738255
 30
0.0
 40
0.25
100
AcDbArc
 50
180.0
 51
299.970615649988
  0
ARC
  5
2CF
330
1F
100
AcDbEntity
  8
0
  6
Continuous
 62
     7
100
AcDbCircle
 10
101.414248279888
 20
128.6726341826501
 30
0.0
 40
0.25
100
AcDbArc
 50
0.0
 51
143.2566048621774
  0
ARC
  5
2D0
330
1F
100
AcDbEntity
  8
0
  6
Continuous
 62
     7
100
AcDbCircle
 10
127.4142481687237
 20
139.289633990496
 30
0.0
 40
3.0000001111643
100
AcDbArc
 50
0.00000260929752
 51
89.99999762818797
  0
ARC
  5
2D1
330
1F
100
AcDbEntity
  8
0
  6
Continuous
 62
     7
100
AcDbCircle
 10
73.41424841883568
 20
139.2896339600387
 30
0.0
 40
3.000000138947686
100
AcDbArc
 50
90.00000231329471
 51
179.9999968090115
  0
ARC
  5
2D2
330
1F
100
AcDbEntity
  8
0
  6
Continuous
 62
     7
100
AcDbCircle
 10
202.2152487015655
 20
104.7896341271166
 30
0.0
 40
7.499999999999979
100
AcDbArc
 50
54.20448965357794
 51
78.46304096719008
  0
ARC
  5
2D3
330
1F
100
AcDbEntity
  8
0
  6
Continuous
 62
     7
100
AcDbCircle
 10
202.2152487015655
 20
104.7896341271166
 30
0.0
 40
7.50000000000002
100
AcDbArc
 50
78.46304096719008
 51
101.5369590328208
  0
ARC
  5
2D4
330
1F
100
AcDbEntity
  8
0
  6
Continuous
 62
     7
100
AcDbCircle
 10
217.5306327350656
 20
90.01335819605936
 30
0.0
 40
7.707540238715584
100
AcDbArc
 50
267.5542690293221
 51
136.2564793500976
  0
ARC
  5
2D5
330
1F
100
AcDbEntity
  8
0
  6
Continuous
 62
     7
100
AcDbCircle
 10
228.7376944543249
 20
90.33073128867164
 30
0.0
 40
1.000000000000068
100
AcDbArc
 50
90.08881874088705
 51
180.088818740887
  0
ARC
  5
2D6
330
1F
100
AcDbEntity
  8
0
  6
Continuous
 62
     7
100
AcDbCircle
 10
228.7485457062414
 20
83.33073969936726
 30
0.0
 40
0.9999999999999541
100
AcDbArc
 50
180.088818740887
 51
270.0888187408936
  0
ARC
  5
2D7
330
1F
100
AcDbEntity
  8
0
  6
Continuous
 62
     7
100
AcDbCircle
 10
202.2152487015655
 20
104.7896341271166
 30
0.0
 40
5.099999999999597
100
AcDbArc
 50
163.5695200309169
 51
180.0888187408874
  0
ARC
  5
2D8
330
1F
100
AcDbEntity
  8
0
  6
Continuous
 62
     7
100
AcDbCircle
 10
202.2152487015655
 20
104.7896341271166
 30
0.0
 40
5.099999999999642
100
AcDbArc
 50
180.0888187408874
 51
197.2654943885627
  0
ARC
  5
2D9
330
1F
100
AcDbEntity
  8
0
  6
Continuous
 62
     7
100
AcDbCircle
 10
202.2152487015655
 20
104.7896341271166
 30
0.0
 40
2.499999999999942
100
AcDbArc
 50
317.2451756972816
 51
0.00000000000912
  0
ARC
  5
2DA
330
1F
100
AcDbEntity
  8
0
  6
Continuous
 62
     7
100
AcDbCircle
 10
202.2152487015655
 20
104.7896341271166
 30
0.0
 40
7.499999999999956
100
AcDbArc
 50
270.0888187408931
 51
274.6465748552941
  0
ARC
  5
2DB
330
1F
100
AcDbEntity
  8
0
  6
Continuous
 62
     7
100
AcDbCircle
 10
202.9443311768111
 20
95.81921391709906
 30
0.0
 40
1.500000000000099
100
AcDbArc
 50
78.60259912838164
 51
94.6465748552993
  0
ARC
  5
2DC
330
1F
100
AcDbEntity
  8
0
  6
Continuous
 62
     7
100
AcDbCircle
 10
202.2152487015655
 20
104.7896341271166
 30
0.0
 40
2.5
100
AcDbArc
 50
0.00000000000912
 51
90.00000000000522
  0
ARC
  5
2DD
330
1F
100
AcDbEntity
  8
0
  6
Continuous
 62
     7
100
AcDbCircle
 10
202.2152487015655
 20
104.7896341271166
 30
0.0
 40
2.499999999999832
100
AcDbArc
 50
209.9152846456401
 51
222.932461784492
  0
ARC
  5
2DE
330
1F
100
AcDbEntity
  8
0
  6
Continuous
 62
     7
100
AcDbCircle
 10
197.4478082246532
 20
83.78221850074834
 30
0.0
 40
1.499999999999903
100
AcDbArc
 50
180.0888187408892
 51
270.0888187408859
  0
ARC
  5
2DF
330
1F
100
AcDbEntity
  8
0
  6
Continuous
 62
     7
100
AcDbCircle
 10
200.2378954041137
 20
90.17901132079365
 30
0.0
 40
4.899999999999459
100
AcDbArc
 50
236.2707446394123
 51
316.2564793500983
  0
ARC
  5
2E0
330
1F
100
AcDbEntity
  8
0
  6
Continuous
 62
     7
100
AcDbCircle
 10
202.9443311768111
 20
95.81921391709906
 30
0.0
 40
1.499999999999958
100
AcDbArc
 50
340.0888187408912
 51
78.60259912838164
  0
ARC
  5
2E1
330
1F
100
AcDbEntity
  8
0
  6
Continuous
 62
     7
100
AcDbCircle
 10
196.9442434140694
 20
86.08144064780876
 30
0.0
 40
3.499999999999257
100
AcDbArc
 50
59.04059674740435
 51
180.0888187408866
  0
ARC
  5
2E2
330
1F
100
AcDbEntity
  8
0
  6
Continuous
 62
     7
100
AcDbCircle
 10
196.9559893576082
 20
85.26343999115164
 30
0.0
 40
1.010477882108538
100
AcDbArc
 50
56.2707446394207
 51
180.0888187408871
  0
ARC
  5
2E3
330
1F
100
AcDbEntity
  8
0
  6
Continuous
 62
     7
100
AcDbCircle
 10
202.2152487015655
 20
104.7896341271166
 30
0.0
 40
7.499999999999991
100
AcDbArc
 50
199.4712206344964
 51
270.0888187408931
  0
ARC
  5
2E4
330
1F
100
AcDbEntity
  8
0
  6
Continuous
 62
     7
100
AcDbCircle
 10
200.2366435726858
 20
90.98655035051067
 30
0.0
 40
2.399999999999534
100
AcDbArc
 50
239.0405967474282
 51
340.0888187408875
  0
ARC
  5
2E5
330
1F
100
AcDbEntity
  8
0
  6
Continuous
 62
     7
100
AcDbCircle
 10
197.4478082246532
 20
83.78221850074834
 30
0.0
 40
4.000000000003173
100
AcDbArc
 50
180.0888187409057
 51
270.0888187408488
  0
ARC
  5
2E6
330
1F
100
AcDbEntity
  8
0
  6
Continuous
 62
     7
100
AcDbCircle
 10
202.2152487015655
 20
104.7896341271166
 30
0.0
 40
5.099999999999786
100
AcDbArc
 50
197.2654943885627
 51
163.5695200309169
  0
ARC
  5
2E7
330
1F
100
AcDbEntity
  8
0
  6
Continuous
 62
     7
100
AcDbCircle
 10
202.2152487015655
 20
104.7896341271166
 30
0.0
 40
7.500000000000109
100
AcDbArc
 50
101.5369590328208
 51
199.4712206344964
  0
ARC
  5
2E8
330
1F
100
AcDbEntity
  8
0
  6
Continuous
 62
     7
100
AcDbCircle
 10
230.243118277991
 20
86.83306076230207
 30
0.0
 40
6.899999999996723
100
AcDbArc
 50
29.68066453482662
 51
30.08881874075795
  0
ARC
  5
2E9
330
1F
100
AcDbEntity
  8
0
  6
Continuous
 62
     7
100
AcDbCircle
 10
230.2431182779992
 20
86.83306076228897
 30
0.0
 40
6.899999999996183
100
AcDbArc
 50
22.08881874088173
 51
24.48498402358537
  0
ARC
  5
2EA
330
1F
100
AcDbEntity
  8
0
  6
Continuous
 62
     7
100
AcDbCircle
 10
230.2431182779994
 20
86.83306076228735
 30
0.0
 40
6.899999999996675
100
AcDbArc
 50
24.4849840235983
 51
29.68066453496742
  0
ARC
  5
2EB
330
1F
100
AcDbEntity
  8
0
  6
Continuous
 62
     7
100
AcDbCircle
 10
230.2431182779978
 20
86.83306076228837
 30
0.0
 40
6.999999999997288
100
AcDbArc
 50
46.08881874089095
 51
54.08881874089406
  0
ARC
  5
2EC
330
1F
100
AcDbEntity
  8
0
  6
Continuous
 62
     7
100
AcDbCircle
 10
230.2431182779994
 20
86.83306076228735
 30
0.0
 40
6.899999999996812
100
AcDbArc
 50
38.08881874090227
 51
46.08881874090692
  0
ARC
  5
2ED
330
1F
100
AcDbEntity
  8
0
  6
Continuous
 62
     7
100
AcDbCircle
 10
230.2431182779994
 20
86.83306076228735
 30
0.0
 40
6.99999999999704
100
AcDbArc
 50
30.08881874089829
 51
38.08881874090211
  0
ARC
  5
2EE
330
1F
100
AcDbEntity
  8
0
  6
Continuous
 62
     7
100
AcDbCircle
 10
230.2431182779962
 20
86.83306076228786
 30
0.0
 40
6.999999999998574
100
AcDbArc
 50
62.08881874088702
 51
70.08881874088934
  0
ARC
  5
2EF
330
1F
100
AcDbEntity
  8
0
  6
Continuous
 62
     7
100
AcDbCircle
 10
230.2431182779978
 20
86.83306076228837
 30
0.0
 40
6.899999999997285
100
AcDbArc
 50
54.08881874089285
 51
62.08881874089697
  0
ARC
  5
2F0
330
1F
100
AcDbEntity
  8
0
  6
Continuous
 62
     7
100
AcDbCircle
 10
230.2431182779962
 20
86.83306076228786
 30
0.0
 40
6.899999999998419
100
AcDbArc
 50
70.08881874088843
 51
78.08881874089194
  0
ARC
  5
2F1
330
1F
100
AcDbEntity
  8
0
  6
Continuous
 62
     7
100
AcDbCircle
 10
230.2431182779994
 20
86.83306076228735
 30
0.0
 40
4.499999999999965
100
AcDbArc
 50
270.0888187408943
 51
90.08881874089428
  0
ARC
  5
2F2
330
1F
100
AcDbEntity
  8
0
  6
Continuous
 62
     7
100
AcDbCircle
 10
230.2431182779994
 20
86.83306076228735
 30
0.0
 40
6.999999999996726
100
AcDbArc
 50
14.08881874089101
 51
22.08881874089526
  0
ARC
  5
2F3
330
1F
100
AcDbEntity
  8
0
  6
Continuous
 62
     7
100
AcDbCircle
 10
230.2431182779992
 20
86.83306076228556
 30
0.0
 40
6.899999999997201
100
AcDbArc
 50
8.00250581155968
 51
14.08881874090525
  0
ARC
  5
2F4
330
1F
100
AcDbEntity
  8
0
  6
Continuous
 62
     7
100
AcDbCircle
 10
230.2431182779992
 20
86.83306076228897
 30
0.0
 40
6.899999999996711
100
AcDbArc
 50
6.08881874087273
 51
8.00250581153163
  0
ARC
  5
2F5
330
1F
100
AcDbEntity
  8
0
  6
Continuous
 62
     7
100
AcDbCircle
 10
230.2431182779962
 20
86.83306076228786
 30
0.0
 40
6.899999999998295
100
AcDbArc
 50
86.08881874089336
 51
90.0888187408932
  0
ARC
  5
2F6
330
1F
100
AcDbEntity
  8
0
  6
Continuous
 62
     7
100
AcDbCircle
 10
230.2431182779962
 20
86.83306076228786
 30
0.0
 40
6.999999999998322
100
AcDbArc
 50
78.08881874089076
 51
86.08881874089218
  0
ARC
  5
2F7
330
1F
100
AcDbEntity
  8
0
  6
Continuous
 62
     7
100
AcDbCircle
 10
230.2431182779992
 20
86.83306076228556
 30
0.0
 40
6.999999999997033
100
AcDbArc
 50
342.0888187408913
 51
350.0888187408945
  0
ARC
  5
2F8
330
1F
100
AcDbEntity
  8
0
  6
Continuous
 62
     7
100
AcDbCircle
 10
230.2431182779975
 20
86.83306076228496
 30
0.0
 40
6.999999999998244
100
AcDbArc
 50
326.0888187408968
 51
334.0888187408981
  0
ARC
  5
2F9
330
1F
100
AcDbEntity
  8
0
  6
Continuous
 62
     7
100
AcDbCircle
 10
230.2431182779994
 20
86.83306076228735
 30
0.0
 40
6.899999999997553
100
AcDbArc
 50
336.6012102478389
 51
342.0888187408765
  0
ARC
  5
2FA
330
1F
100
AcDbEntity
  8
0
  6
Continuous
 62
     7
100
AcDbCircle
 10
230.2431182779975
 20
86.83306076228496
 30
0.0
 40
6.899999999998389
100
AcDbArc
 50
334.0888187408984
 51
336.6012102478633
  0
ARC
  5
2FB
330
1F
100
AcDbEntity
  8
0
  6
Continuous
 62
     7
100
AcDbCircle
 10
230.2431182779975
 20
86.83306076228496
 30
0.0
 40
6.899999999998311
100
AcDbArc
 50
318.0888187408949
 51
326.0888187408964
  0
ARC
  5
2FC
330
1F
100
AcDbEntity
  8
0
  6
Continuous
 62
     7
100
AcDbCircle
 10
230.2431182779966
 20
86.83306076228635
 30
0.0
 40
7.000000000000303
100
AcDbArc
 50
278.0888187408908
 51
286.0888187408903
  0
ARC
  5
2FD
330
1F
100
AcDbEntity
  8
0
  6
Continuous
 62
     7
100
AcDbCircle
 10
230.2431182779966
 20
86.83306076228635
 30
0.0
 40
6.900000000000236
100
AcDbArc
 50
270.0888187408901
 51
278.0888187408885
  0
ARC
  5
2FE
330
1F
100
AcDbEntity
  8
0
  6
Continuous
 62
     7
100
AcDbCircle
 10
230.2431182779966
 20
86.83306076228635
 30
0.0
 40
6.900000000000143
100
AcDbArc
 50
286.088818740891
 51
294.0888187408904
  0
ARC
  5
2FF
330
1F
100
AcDbEntity
  8
0
  6
Continuous
 62
     7
100
AcDbCircle
 10
230.2431182779964
 20
86.83306076228524
 30
0.0
 40
6.999999999999245
100
AcDbArc
 50
294.0888187408947
 51
302.088818740896
  0
ARC
  5
300
330
1F
100
AcDbEntity
  8
0
  6
Continuous
 62
     7
100
AcDbCircle
 10
230.2431182779964
 20
86.83306076228524
 30
0.0
 40
6.899999999999129
100
AcDbArc
 50
302.0888187408964
 51
310.0888187408976
  0
ARC
  5
301
330
1F
100
AcDbEntity
  8
0
  6
Continuous
 62
     7
100
AcDbCircle
 10
230.2431182780394
 20
86.83306076232606
 30
0.0
 40
7.000000000002701
100
AcDbArc
 50
310.0888187404128
 51
318.0888187404152
  0
ARC
  5
302
330
1F
100
AcDbEntity
  8
0
  6
Continuous
 62
     7
100
AcDbCircle
 10
230.2431182779992
 20
86.83306076228556
 30
0.0
 40
6.89999999999701
100
AcDbArc
 50
350.0888187408951
 51
358.0888187408979
  0
ARC
  5
303
330
1F
100
AcDbEntity
  8
0
  6
Continuous
 62
     7
100
AcDbCircle
 10
230.2431182779992
 20
86.83306076228556
 30
0.0
 40
6.999999999997114
100
AcDbArc
 50
358.0888187408976
 51
6.08881874090139
  0
ARC
  5
304
330
1F
100
AcDbEntity
  8
0
  6
Continuous
 62
     7
100
AcDbCircle
 10
220.7152485765029
 20
139.2896339739279
 30
0.0
 40
3.000000125058822
100
AcDbArc
 50
0.00000292573619
 51
89.99999742145295
  0
ARC
  5
305
330
1F
100
AcDbEntity
  8
0
  6
Continuous
 62
     7
100
AcDbCircle
 10
202.2152487015655
 20
104.7896341271166
 30
0.0
 40
2.499999999999942
100
AcDbArc
 50
317.2451756972816
 51
0.00000000000912
  0
ARC
  5
306
330
1F
100
AcDbEntity
  8
0
  6
Continuous
 62
     7
100
AcDbCircle
 10
202.2152487015655
 20
104.7896341271166
 30
0.0
 40
2.5
100
AcDbArc
 50
0.00000000000912
 51
90.00000000000522
  0
ARC
  5
307
330
1F
100
AcDbEntity
  8
0
  6
Continuous
 62
     7
100
AcDbCircle
 10
202.2152487015655
 20
104.7896341271166
 30
0.0
 40
2.499999999999832
100
AcDbArc
 50
209.9152846456401
 51
222.932461784492
  0
ARC
  5
308
330
1F
100
AcDbEntity
  8
0
  6
Continuous
 62
     7
100
AcDbCircle
 10
183.7152488266144
 20
139.2896339768764
 30
0.0
 40
3.00000012505271
100
AcDbArc
 50
90.00000205843293
 51
179.9999971306671
  0
CIRCLE
  5
309
330
1F
100
AcDbEntity
  8
0
  6
Continuous
 62
     7
100
AcDbCircle
 10
210.721439203962
 20
100.8028154534142
 30
0.0
 40
3.000000000000085
  0
SPLINE
  5
30A
330
1F
100
AcDbEntity
  8
0
  6
Continuous
 62
     7
100
AcDbSpline
210
0.0
220
0.0
230
1.0
 70
     8
 71
     3
 72
    11
 73
     7
 74
     5
 42
0.000000001
 43
0.0000000001
 44
0.00000001
 40
0.0
 40
0.0
 40
0.0
 40
0.0
 40
2.082796429294203
 40
4.328731295997686
 40
6.575374941899767
 40
8.660246424514975
 40
8.660246424514975
 40
8.660246424514975
 40
8.660246424514975
 10
103.0989270316199
 20
90.59276531513237
 30
0.0
 10
103.4462580738127
 20
89.99162830689656
 30
0.0
 10
104.1681254169229
 20
88.74226924320237
 30
0.0
 10
105.2641535390353
 20
86.84419836553768
 30
0.0
 10
106.3602647348909
 20
84.94537676203119
 30
0.0
 10
107.0817731785526
 20
83.69473898932165
 30
0.0
 10
107.429054050542
 20
83.09277432659405
 30
0.0
 11
103.0989270316199
 21
90.59276531513237
 31
0.0
 11
104.1408449054697
 21
88.78931082165714
 31
0.0
 11
105.2639905410812
 21
86.84437706785191
 31
0.0
 11
106.3871361766926
 21
84.89862488607514
 31
0.0
 11
107.429054050542
 21
83.09277432659405
 31
0.0
  0
SPLINE
  5
30B
330
1F
100
AcDbEntity
  8
0
  6
Continuous
 62
     7
100
AcDbSpline
210
0.0
220
0.0
230
1.0
 70
     8
 71
     3
 72
    11
 73
     7
 74
     5
 42
0.000000001
 43
0.0000000001
 44
0.00000001
 40
0.0
 40
0.0
 40
0.0
 40
0.0
 40
2.073645509662049
 40
4.331610681962569
 40
6.58881655874502
 40
8.660246452349586
 40
8.660246452349586
 40
8.660246452349586
 40
8.660246452349586
 10
97.72956952815647
 20
83.09204393546494
 30
0.0
 10
97.38417311535824
 20
83.69077570635841
 30
0.0
 10
96.66267910302165
 20
84.94145857685997
 30
0.0
 10
95.56467971937562
 20
86.8435650294775
 30
0.0
 10
94.46677437664582
 20
88.74487298554452
 30
0.0
 10
93.74489258433198
 20
89.99418692641726
 30
0.0
 10
93.3994425092333
 20
90.59203492400516
 30
0.0
 11
97.72956952815647
 21
83.09204393546494
 31
0.0
 11
96.6932997928548
 21
84.8881927977373
 31
0.0
 11
95.56450601869528
 21
86.84375699631315
 31
0.0
 11
94.43571224453554
 21
88.79844443567784
 31
0.0
 11
93.3994425092333
 21
90.59203492400516
 31
0.0
  0
SPLINE
  5
30C
330
1F
100
AcDbEntity
  8
0
  6
Continuous
 62
     7
100
AcDbSpline
210
0.0
220
0.0
230
1.0
 70
     8
 71
     3
 72
     9
 73
     5
 74
     3
 42
0.000000001
 43
0.0000000001
 44
0.00000001
 40
0.0
 40
0.0
 40
0.0
 40
0.0
 40
2.645554622403952
 40
5.082124158236135
 40
5.082124158236135
 40
5.082124158236135
 40
5.082124158236135
 10
103.3298671392955
 20
87.49370864937285
 30
0.0
 10
102.888930596303
 20
86.73000902267485
 30
0.0
 10
102.0418892264098
 20
85.2629380667003
 30
0.0
 10
101.1953770610686
 20
83.7955616933772
 30
0.0
 10
100.7895259548615
 20
83.09204393546455
 30
0.0
 11
103.3298671392955
 21
87.49370864937285
 31
0.0
 11
102.0072009254482
 21
85.20252700077398
 31
0.0
 11
100.7895259548615
 21
83.09204393546455
 31
0.0
  0
SPLINE
  5
30D
330
1F
100
AcDbEntity
  8
0
  6
Continuous
 62
     7
100
AcDbSpline
210
0.0
220
0.0
230
1.0
 70
     8
 71
     3
 72
     9
 73
     5
 74
     3
 42
0.000000001
 43
0.0000000001
 44
0.00000001
 40
0.0
 40
0.0
 40
0.0
 40
0.0
 40
2.377877462919505
 40
4.562546688189457
 40
4.562546688189457
 40
4.562546688189457
 40
4.562546688189457
 10
104.6289052449722
 20
87.04375226179255
 30
0.0
 10
104.2326090005775
 20
86.35730853593269
 30
0.0
 10
103.4722165479229
 20
85.04019627060154
 30
0.0
 10
102.7122594372828
 20
83.72283277180495
 30
0.0
 10
102.3483716816736
 20
83.09204393546466
 30
0.0
 11
104.6289052449722
 21
87.04375226179255
 31
0.0
 11
103.440134769508
 21
84.98435283833666
 31
0.0
 11
102.3483716816736
 21
83.09204393546466
 31
0.0
  0
SPLINE
  5
30E
330
1F
100
AcDbEntity
  8
0
  6
Continuous
 62
     7
100
AcDbSpline
210
0.0
220
0.0
230
1.0
 70
     8
 71
     3
 72
     9
 73
     5
 74
     3
 42
0.000000001
 43
0.0000000001
 44
0.00000001
 40
0.0
 40
0.0
 40
0.0
 40
0.0
 40
0.5190397654302304
 40
1.03927344804324
 40
1.03927344804324
 40
1.03927344804324
 40
1.03927344804324
 10
105.1485204872429
 20
86.14370265244426
 30
0.0
 10
105.0620223718665
 20
86.29354144084591
 30
0.0
 10
104.888827157176
 20
86.59356367315712
 30
0.0
 10
104.7156122179191
 20
86.89357451811313
 30
0.0
 10
104.6289052449722
 20
87.04375226179255
 30
0.0
 11
105.1485204872429
 21
86.14370265244426
 31
0.0
 11
104.889021212655
 21
86.59321617235932
 31
0.0
 11
104.6289052449722
 21
87.04375226179255
 31
0.0
  0
SPLINE
  5
30F
330
1F
100
AcDbEntity
  8
0
  6
Continuous
 62
     7
100
AcDbSpline
210
0.0
220
0.0
230
1.0
 70
     8
 71
     3
 72
     9
 73
     5
 74
     3
 42
0.000000001
 43
0.0000000001
 44
0.00000001
 40
0.0
 40
0.0
 40
0.0
 40
0.0
 40
1.878657239191867
 40
3.752822180938075
 40
3.752822180938075
 40
3.752822180938075
 40
3.752822180938075
 10
102.2906366547542
 20
88.39348176344285
 30
0.0
 10
101.9774657043061
 20
87.85119558920447
 30
0.0
 10
101.3518726838177
 20
86.76791996051074
 30
0.0
 10
100.7265402250436
 20
85.68449389890195
 30
0.0
 10
100.4142482798881
 20
85.14342931803927
 30
0.0
 11
102.2906366547542
 21
88.39348176344285
 31
0.0
 11
101.3511891085644
 21
86.76658553739489
 31
0.0
 11
100.4142482798881
 21
85.14342931803927
 31
0.0
  0
SPLINE
  5
310
330
1F
100
AcDbEntity
  8
0
  6
Continuous
 62
     7
100
AcDbSpline
210
0.0
220
0.0
230
1.0
 70
     8
 71
     3
 72
     9
 73
     5
 74
     3
 42
0.000000001
 43
0.0000000001
 44
0.00000001
 40
0.0
 40
0.0
 40
0.0
 40
0.0
 40
2.449831143280584
 40
5.082663518322766
 40
5.082663518322766
 40
5.082663518322766
 40
5.082663518322766
 10
101.8287564394032
 20
83.09204393546506
 30
0.0
 10
102.2367215022846
 20
83.79944555028048
 30
0.0
 10
103.083126443311
 20
85.26709133712178
 30
0.0
 10
103.9302733862352
 20
86.73430895756148
 30
0.0
 10
104.3690976238369
 20
87.49433133796197
 30
0.0
 11
101.8287564394032
 21
83.09204393546506
 31
0.0
 11
103.0528240191732
 21
85.21414930296021
 31
0.0
 11
104.3690976238369
 21
87.49433133796197
 31
0.0
  0
SPLINE
  5
311
330
1F
100
AcDbEntity
  8
0
  6
Continuous
 62
     7
100
AcDbSpline
210
0.0
220
0.0
230
1.0
 70
     8
 71
     3
 72
    11
 73
     7
 74
     5
 42
0.000000001
 43
0.0000000001
 44
0.00000001
 40
0.0
 40
0.0
 40
0.0
 40
0.0
 40
1.898883064733498
 40
3.8838526044276
 40
5.831402662336265
 40
7.620356483628065
 40
7.620356483628065
 40
7.620356483628065
 40
7.620356483628065
 10
107.4290540505425
 20
83.99280536791426
 30
0.0
 10
107.1127077140692
 20
84.54104313814112
 30
0.0
 10
106.4656733649112
 20
85.6623732067479
 30
0.0
 10
105.4938010939809
 20
87.3457704337836
 30
0.0
 10
104.5400331596116
 20
88.99730840811623
 30
0.0
 10
103.9168894433956
 20
90.07571713906034
 30
0.0
 10
103.6185422738901
 20
90.59203492400536
 30
0.0
 11
107.4290540505425
 21
83.99280536791426
 31
0.0
 11
106.4799539251512
 21
85.63748340495232
 31
0.0
 11
105.4875267599606
 21
87.35655070884495
 31
0.0
 11
104.5135219739495
 21
89.04304586297253
 31
0.0
 11
103.6185422738901
 21
90.59203492400536
 31
0.0
  0
SPLINE
  5
312
330
1F
100
AcDbEntity
  8
0
  6
Continuous
 62
     7
100
AcDbSpline
210
0.0
220
0.0
230
1.0
 70
     8
 71
     3
 72
     9
 73
     5
 74
     3
 42
0.000000001
 43
0.0000000001
 44
0.00000001
 40
0.0
 40
0.0
 40
0.0
 40
0.0
 40
1.799192182478069
 40
3.462198433772082
 40
3.462198433772082
 40
3.462198433772082
 40
3.462198433772082
 10
104.3690976238369
 20
87.49433133796197
 30
0.0
 10
104.0690852220721
 20
88.01362846344863
 30
0.0
 10
103.491769186118
 20
89.01291564021736
 30
0.0
 10
102.914383773593
 20
90.01216273295442
 30
0.0
 10
102.6370468162678
 20
90.49213353096937
 30
0.0
 11
104.3690976238369
 21
87.49433133796197
 31
0.0
 11
103.469041673729
 21
89.05221188414205
 31
0.0
 11
102.6370468162678
 21
90.49213353096937
 31
0.0
  0
SPLINE
  5
313
330
1F
100
AcDbEntity
  8
0
  6
Continuous
 62
     7
100
AcDbSpline
210
0.0
220
0.0
230
1.0
 70
     8
 71
     3
 72
     9
 73
     5
 74
     3
 42
0.000000001
 43
0.0000000001
 44
0.00000001
 40
0.0
 40
0.0
 40
0.0
 40
0.0
 40
2.287251095861545
 40
4.386370988184607
 40
4.386370988184607
 40
4.386370988184607
 40
4.386370988184607
 10
107.429054050542
 20
86.79375677555785
 30
0.0
 10
107.0478203539765
 20
87.4540147614688
 30
0.0
 10
106.3167102152407
 20
88.72022311805742
 30
0.0
 10
105.5851938640564
 20
89.98619683897788
 30
0.0
 10
105.235123027621
 20
90.59203492400565
 30
0.0
 11
107.429054050542
 21
86.79375677555785
 31
0.0
 11
106.2852425002715
 21
88.77446692926344
 31
0.0
 11
105.235123027621
 21
90.59203492400565
 31
0.0
  0
SPLINE
  5
314
330
1F
100
AcDbEntity
  8
0
  6
Continuous
 62
     7
100
AcDbSpline
210
0.0
220
0.0
230
1.0
 70
     8
 71
     3
 72
     9
 73
     5
 74
     3
 42
0.000000001
 43
0.0000000001
 44
0.00000001
 40
0.0
 40
0.0
 40
0.0
 40
0.0
 40
0.5897687935624716
 40
1.153979608684023
 40
1.153979608684023
 40
1.153979608684023
 40
1.153979608684023
 10
107.4290540505419
 20
89.59286746945514
 30
0.0
 10
107.3307068803269
 20
89.76308880818274
 30
0.0
 10
107.1382744551854
 20
90.09615483353802
 30
0.0
 10
106.9458064378493
 20
90.42920029257034
 30
0.0
 10
106.8517037813517
 20
90.59203492400616
 30
0.0
 11
107.4290540505419
 21
89.59286746945514
 31
0.0
 11
107.1340032342903
 21
90.10352610855745
 31
0.0
 11
106.8517037813517
 21
90.59203492400616
 31
0.0
  0
SPLINE
  5
315
330
1F
100
AcDbEntity
  8
0
  6
Continuous
 62
     7
100
AcDbSpline
210
0.0
220
0.0
230
1.0
 70
     8
 71
     3
 72
     9
 73
     5
 74
     3
 42
0.000000001
 43
0.0000000001
 44
0.00000001
 40
0.0
 40
0.0
 40
0.0
 40
0.0
 40
2.617204240811846
 40
5.425779154885968
 40
5.425779154885968
 40
5.425779154885968
 40
5.425779154885968
 10
104.7155077853505
 20
90.59276531513285
 30
0.0
 10
105.1519500340116
 20
89.83738302592008
 30
0.0
 10
106.0567472878095
 20
88.27138468269439
 30
0.0
 10
106.9609874277999
 20
86.70506458272695
 30
0.0
 10
107.4290540505421
 20
85.89428197570876
 30
0.0
 11
104.7155077853505
 21
90.59276531513285
 31
0.0
 11
106.024704896427
 21
88.32654357786205
 31
0.0
 11
107.4290540505421
 21
85.89428197570876
 31
0.0
  0
SPLINE
  5
316
330
1F
100
AcDbEntity
  8
0
  6
Continuous
 62
     7
100
AcDbSpline
210
0.0
220
0.0
230
1.0
 70
     8
 71
     3
 72
     9
 73
     5
 74
     3
 42
0.000000001
 43
0.0000000001
 44
0.00000001
 40
0.0
 40
0.0
 40
0.0
 40
0.0
 40
1.063635199555811
 40
2.192857146801787
 40
2.192857146801787
 40
2.192857146801787
 40
2.192857146801787
 10
106.3320885390815
 20
90.59276531513257
 30
0.0
 10
106.5094739910417
 20
90.2857855012963
 30
0.0
 10
106.87518296513
 20
89.65289662207577
 30
0.0
 10
107.2407853945851
 20
89.01994618886863
 30
0.0
 10
107.429054050542
 20
88.69400542567476
 30
0.0
 11
106.3320885390815
 21
90.59276531513257
 31
0.0
 11
106.8642198201563
 21
89.67181138716602
 31
0.0
 11
107.429054050542
 21
88.69400542567476
 31
0.0
  0
SPLINE
  5
317
330
1F
100
AcDbEntity
  8
0
  6
Continuous
 62
     7
100
AcDbSpline
210
0.0
220
0.0
230
1.0
 70
     8
 71
     3
 72
     9
 73
     5
 74
     3
 42
0.000000001
 43
0.0000000001
 44
0.00000001
 40
0.0
 40
0.0
 40
0.0
 40
0.0
 40
1.697276571977415
 40
3.52264066392048
 40
3.52264066392048
 40
3.52264066392048
 40
3.52264066392048
 10
103.387602166215
 20
83.09277432659255
 30
0.0
 10
103.670308387747
 20
83.58283583815314
 30
0.0
 10
104.2570556968151
 20
84.59994207761866
 30
0.0
 10
104.8442485346883
 20
85.61679117233034
 30
0.0
 10
105.1485204872429
 20
86.14370265244426
 30
0.0
 11
103.387602166215
 21
83.09277432659255
 31
0.0
 11
104.235824268343
 21
84.56289916049272
 31
0.0
 11
105.1485204872429
 21
86.14370265244426
 31
0.0
  0
SPLINE
  5
318
330
1F
100
AcDbEntity
  8
0
  6
Continuous
 62
     7
100
AcDbSpline
210
0.0
220
0.0
230
1.0
 70
     8
 71
     3
 72
     9
 73
     5
 74
     3
 42
0.000000001
 43
0.0000000001
 44
0.00000001
 40
0.0
 40
0.0
 40
0.0
 40
0.0
 40
0.5086941013016233
 40
1.038569262426333
 40
1.038569262426333
 40
1.038569262426333
 40
1.038569262426333
 10
97.49862942048017
 20
90.59203492400516
 30
0.0
 10
97.41378588734247
 20
90.4452229266924
 30
0.0
 10
97.24056611421273
 20
90.14548594828675
 30
0.0
 10
97.06737552718145
 20
89.84573210494464
 30
0.0
 10
96.9790141782095
 20
89.69279851920405
 30
0.0
 11
97.49862942048017
 21
90.59203492400516
 31
0.0
 11
97.24410583132135
 21
90.1515948812512
 31
0.0
 11
96.9790141782095
 21
89.69279851920405
 31
0.0
  0
SPLINE
  5
319
330
1F
100
AcDbEntity
  8
0
  6
Continuous
 62
     7
100
AcDbSpline
210
0.0
220
0.0
230
1.0
 70
     8
 71
     3
 72
     9
 73
     5
 74
     3
 42
0.000000001
 43
0.0000000001
 44
0.00000001
 40
0.0
 40
0.0
 40
0.0
 40
0.0
 40
0.4534344700090054
 40
0.9231845942465035
 40
0.9231845942465035
 40
0.9231845942465035
 40
0.9231845942465035
 10
102.5215767624295
 20
90.49213353096866
 30
0.0
 10
102.4459515903127
 20
90.36126874966239
 30
0.0
 10
102.2919800892498
 20
90.09483034993568
 30
0.0
 10
102.1380313126694
 20
89.82837881929285
 30
0.0
 10
102.0596965470782
 20
89.69279851920484
 30
0.0
 11
102.5215767624295
 21
90.49213353096866
 31
0.0
 11
102.2947067365244
 21
90.09953601449865
 31
0.0
 11
102.0596965470782
 21
89.69279851920484
 31
0.0
  0
SPLINE
  5
31A
330
1F
100
AcDbEntity
  8
0
  6
Continuous
 62
     7
100
AcDbSpline
210
0.0
220
0.0
230
1.0
 70
     8
 71
     3
 72
     9
 73
     5
 74
     3
 42
0.000000001
 43
0.0000000001
 44
0.00000001
 40
0.0
 40
0.0
 40
0.0
 40
0.0
 40
2.750000379109648
 40
5.310292526539596
 40
5.310292526539596
 40
5.310292526539596
 40
5.310292526539596
 10
98.94200509345436
 20
85.99430111473976
 30
0.0
 10
99.40031628951827
 20
86.78817067069508
 30
0.0
 10
100.2853221918684
 20
88.3211448384522
 30
0.0
 10
101.1708634910639
 20
89.85380978848937
 30
0.0
 10
101.5978163317259
 20
90.59276531513217
 30
0.0
 11
98.94200509345436
 21
85.99430111473976
 31
0.0
 11
100.317082274411
 21
88.37582685080099
 31
0.0
 11
101.5978163317259
 21
90.59276531513217
 31
0.0
  0
SPLINE
  5
31B
330
1F
100
AcDbEntity
  8
0
  6
Continuous
 62
     7
100
AcDbSpline
210
0.0
220
0.0
230
1.0
 70
     8
 71
     3
 72
     9
 73
     5
 74
     3
 42
0.000000001
 43
0.0000000001
 44
0.00000001
 40
0.0
 40
0.0
 40
0.0
 40
0.0
 40
1.244412215536263
 40
2.539553107459041
 40
2.539553107459041
 40
2.539553107459041
 40
2.539553107459041
 10
102.0596965470782
 20
89.69279851920484
 30
0.0
 10
102.2672974870905
 20
89.33368254818141
 30
0.0
 10
102.6909622375479
 20
88.60081117226562
 30
0.0
 10
103.1140815141593
 20
87.86762473293479
 30
0.0
 10
103.3298671392955
 20
87.49370864937285
 30
0.0
 11
102.0596965470782
 21
89.69279851920484
 31
0.0
 11
102.6823683839599
 21
88.61537495080827
 31
0.0
 11
103.3298671392955
 21
87.49370864937285
 31
0.0
  0
SPLINE
  5
31C
330
1F
100
AcDbEntity
  8
0
  6
Continuous
 62
     7
100
AcDbSpline
210
0.0
220
0.0
230
1.0
 70
     8
 71
     3
 72
    11
 73
     7
 74
     5
 42
0.000000001
 43
0.0000000001
 44
0.00000001
 40
0.0
 40
0.0
 40
0.0
 40
0.0
 40
1.897936139614002
 40
3.873033298202981
 40
5.816587390335929
 40
7.621630999290366
 40
7.621630999290366
 40
7.621630999290366
 40
7.621630999290366
 10
93.39944250923415
 20
89.69347558931295
 30
0.0
 10
93.71589174931793
 20
89.14566170005205
 30
0.0
 10
94.36165553104736
 20
88.02776241750898
 30
0.0
 10
95.33111655452838
 20
86.3486754584773
 30
0.0
 10
96.28488872767653
 20
84.69628489906341
 30
0.0
 10
96.90928963066503
 20
83.61394707848517
 30
0.0
 10
97.20995428588586
 20
83.09277432659235
 30
0.0
 11
93.39944250923415
 21
89.69347558931295
 31
0.0
 11
94.3487329775657
 21
88.05000085668412
 31
0.0
 11
95.33633802402838
 21
86.3395491449791
 31
0.0
 11
96.30790247048813
 21
84.65625920102126
 31
0.0
 11
97.20995428588586
 21
83.09277432659235
 31
0.0
  0
SPLINE
  5
31D
330
1F
100
AcDbEntity
  8
0
  6
Continuous
 62
     7
100
AcDbSpline
210
0.0
220
0.0
230
1.0
 70
     8
 71
     3
 72
     9
 73
     5
 74
     3
 42
0.000000001
 43
0.0000000001
 44
0.00000001
 40
0.0
 40
0.0
 40
0.0
 40
0.0
 40
3.214961895631047
 40
6.638432426735231
 40
6.638432426735231
 40
6.638432426735231
 40
6.638432426735231
 10
100.5585858471847
 20
90.59203492400485
 30
0.0
 10
100.0224576803024
 20
89.66412930303122
 30
0.0
 10
98.91543039110785
 20
87.74813807346683
 30
0.0
 10
97.80927254517238
 20
85.83164475461139
 30
0.0
 10
97.23882179934495
 20
84.84330021592086
 30
0.0
 11
100.5585858471847
 21
90.59203492400485
 31
0.0
 11
98.9504052756103
 21
87.8082002953712
 31
0.0
 11
97.23882179934495
 21
84.84330021592086
 31
0.0
  0
SPLINE
  5
31E
330
1F
100
AcDbEntity
  8
0
  6
Continuous
 62
     7
100
AcDbSpline
210
0.0
220
0.0
230
1.0
 70
     8
 71
     3
 72
     9
 73
     5
 74
     3
 42
0.000000001
 43
0.0000000001
 44
0.00000001
 40
0.0
 40
0.0
 40
0.0
 40
0.0
 40
1.082714722525073
 40
2.19141046556687
 40
2.19141046556687
 40
2.19141046556687
 40
2.19141046556687
 10
97.61665301569658
 20
84.18918276478635
 30
0.0
 10
97.92916147608985
 20
84.36971202717615
 30
0.0
 10
98.56167741705679
 20
84.73510254783518
 30
0.0
 10
99.19422486097393
 20
85.10043852932935
 30
0.0
 10
99.51424827988816
 20
85.28527219450675
 30
0.0
 11
97.61665301569658
 21
84.18918276478635
 31
0.0
 11
98.5541860918587
 21
84.73075723009578
 31
0.0
 11
99.51424827988816
 21
85.28527219450675
 31
0.0
  0
SPLINE
  5
31F
330
1F
100
AcDbEntity
  8
0
  6
Continuous
 62
     7
100
AcDbSpline
210
0.0
220
0.0
230
1.0
 70
     8
 71
     3
 72
     9
 73
     5
 74
     3
 42
0.000000001
 43
0.0000000001
 44
0.00000001
 40
0.0
 40
0.0
 40
0.0
 40
0.0
 40
0.8515940898519095
 40
1.699728046674375
 40
1.699728046674375
 40
1.699728046674375
 40
1.699728046674375
 10
100.4142482798881
 20
86.84375699631374
 30
0.0
 10
100.1684213719056
 20
86.70181228130919
 30
0.0
 10
99.67776637133913
 20
86.41849960770796
 30
0.0
 10
99.18692578833829
 20
86.1355085785396
 30
0.0
 10
98.94200509345436
 20
85.99430111473976
 30
0.0
 11
100.4142482798881
 21
86.84375699631374
 31
0.0
 11
99.67672096622482
 21
86.41800359882282
 31
0.0
 11
98.94200509345436
 21
85.99430111473976
 31
0.0
  0
SPLINE
  5
320
330
1F
100
AcDbEntity
  8
0
  6
Continuous
 62
     7
100
AcDbSpline
210
0.0
220
0.0
230
1.0
 70
     8
 71
     3
 72
     9
 73
     5
 74
     3
 42
0.000000001
 43
0.0000000001
 44
0.00000001
 40
0.0
 40
0.0
 40
0.0
 40
0.0
 40
0.3804894716565471
 40
0.7553979957912296
 40
0.7553979957912296
 40
0.7553979957912296
 40
0.7553979957912296
 10
97.23882179934495
 20
84.84330021592086
 30
0.0
 10
97.30231400130195
 20
84.7335070157793
 30
0.0
 10
97.42836709630245
 20
84.51553103135888
 30
0.0
 10
97.55420093883328
 20
84.29742840308644
 30
0.0
 10
97.61665301569658
 20
84.18918276478635
 30
0.0
 11
97.23882179934495
 21
84.84330021592086
 31
0.0
 11
97.42924277039168
 21
84.51388847989791
 31
0.0
 11
97.61665301569658
 21
84.18918276478635
 31
0.0
  0
SPLINE
  5
321
330
1F
100
AcDbEntity
  8
0
  6
Continuous
 62
     7
100
AcDbSpline
210
0.0
220
0.0
230
1.0
 70
     8
 71
     3
 72
     9
 73
     5
 74
     3
 42
0.000000001
 43
0.0000000001
 44
0.00000001
 40
0.0
 40
0.0
 40
0.0
 40
0.0
 40
0.6468655358649656
 40
1.299894812411647
 40
1.299894812411647
 40
1.299894812411647
 40
1.299894812411647
 10
96.37873650323635
 20
88.65430998423375
 30
0.0
 10
96.56548818959199
 20
88.54652970856358
 30
0.0
 10
96.94077103954487
 20
88.32994214181088
 30
0.0
 10
97.31604355590329
 20
88.11333667094905
 30
0.0
 10
97.50456952815628
 20
88.00452038528175
 30
0.0
 11
96.37873650323635
 21
88.65430998423375
 31
0.0
 11
96.93898899839465
 21
88.33096471496424
 31
0.0
 11
97.50456952815628
 21
88.00452038528175
 31
0.0
  0
SPLINE
  5
322
330
1F
100
AcDbEntity
  8
0
  6
Continuous
 62
     7
100
AcDbSpline
210
0.0
220
0.0
230
1.0
 70
     8
 71
     3
 72
     9
 73
     5
 74
     3
 42
0.000000001
 43
0.0000000001
 44
0.00000001
 40
0.0
 40
0.0
 40
0.0
 40
0.0
 40
0.4452140345738232
 40
0.8990913044859707
 40
0.8990913044859707
 40
0.8990913044859707
 40
0.8990913044859707
 10
96.82873650323629
 20
89.43268336927406
 30
0.0
 10
96.7545059248363
 20
89.30417744983481
 30
0.0
 10
96.60460032866544
 20
89.04466507755006
 30
0.0
 10
96.45450652942651
 20
88.785261510277
 30
0.0
 10
96.37873650323635
 20
88.65430998423375
 30
0.0
 11
96.82873650323629
 21
89.43268336927406
 31
0.0
 11
96.60599861112719
 21
89.04719229544426
 31
0.0
 11
96.37873650323635
 21
88.65430998423375
 31
0.0
  0
SPLINE
  5
323
330
1F
100
AcDbEntity
  8
0
  6
Continuous
 62
     7
100
AcDbSpline
210
0.0
220
0.0
230
1.0
 70
     8
 71
     3
 72
     9
 73
     5
 74
     3
 42
0.000000001
 43
0.0000000001
 44
0.00000001
 40
0.0
 40
0.0
 40
0.0
 40
0.0
 40
0.6555616575463055
 40
1.299824343551016
 40
1.299824343551016
 40
1.299824343551016
 40
1.299824343551016
 10
97.95456952815616
 20
88.78303475387295
 30
0.0
 10
97.76530267234514
 20
88.89225603927257
 30
0.0
 10
97.39003107076172
 20
89.10881610285335
 30
0.0
 10
97.01474728704203
 20
89.32535505493439
 30
0.0
 10
96.82873650323629
 20
89.43268336927406
 30
0.0
 11
97.95456952815616
 21
88.78303475387295
 31
0.0
 11
97.38676585692535
 21
89.11069323122693
 31
0.0
 11
96.82873650323629
 21
89.43268336927406
 31
0.0
  0
SPLINE
  5
324
330
1F
100
AcDbEntity
  8
0
  6
Continuous
 62
     7
100
AcDbSpline
210
0.0
220
0.0
230
1.0
 70
     8
 71
     3
 72
     9
 73
     5
 74
     3
 42
0.000000001
 43
0.0000000001
 44
0.00000001
 40
0.0
 40
0.0
 40
0.0
 40
0.0
 40
0.5184362756751213
 40
1.050656240340396
 40
1.050656240340396
 40
1.050656240340396
 40
1.050656240340396
 10
98.48012487810254
 20
89.69279851920425
 30
0.0
 10
98.39367538673778
 20
89.54316394908953
 30
0.0
 10
98.21847798474552
 20
89.23991645768947
 30
0.0
 10
98.04330504630853
 20
88.93665483409008
 30
0.0
 10
97.95456952815616
 20
88.78303475387295
 30
0.0
 11
98.48012487810254
 21
89.69279851920425
 31
0.0
 11
98.2207823689142
 21
89.24389136303043
 31
0.0
 11
97.95456952815616
 21
88.78303475387295
 31
0.0
  0
SPLINE
  5
325
330
1F
100
AcDbEntity
  8
0
  6
Continuous
 62
     7
100
AcDbSpline
210
0.0
220
0.0
230
1.0
 70
     8
 71
     3
 72
     9
 73
     5
 74
     3
 42
0.000000001
 43
0.0000000001
 44
0.00000001
 40
0.0
 40
0.0
 40
0.0
 40
0.0
 40
0.5223180537250058
 40
1.039034002024574
 40
1.039034002024574
 40
1.039034002024574
 40
1.039034002024574
 10
102.810251897025
 20
87.49370864937276
 30
0.0
 10
102.7231875707004
 20
87.64448234924565
 30
0.0
 10
102.5499927063529
 20
87.94441262053812
 30
0.0
 10
102.3767773723358
 20
88.244331070678
 30
0.0
 10
102.2906366547542
 20
88.39348176344285
 30
0.0
 11
102.810251897025
 21
87.49370864937276
 31
0.0
 11
102.5490537365488
 21
87.94602675669452
 31
0.0
 11
102.2906366547542
 21
88.39348176344285
 31
0.0
  0
SPLINE
  5
326
330
1F
100
AcDbEntity
  8
0
  6
Continuous
 62
     7
100
AcDbSpline
210
0.0
220
0.0
230
1.0
 70
     8
 71
     3
 72
     9
 73
     5
 74
     3
 42
0.000000001
 43
0.0000000001
 44
0.00000001
 40
0.0
 40
0.0
 40
0.0
 40
0.0
 40
3.15583229837071
 40
6.118738973725889
 40
6.118738973725889
 40
6.118738973725889
 40
6.118738973725889
 10
96.97901417820978
 20
85.29412089908266
 30
0.0
 10
97.50490922879993
 20
86.20517567735166
 30
0.0
 10
98.52454978400638
 20
87.97158967542097
 30
0.0
 10
99.54488750760851
 20
89.73760105629574
 30
0.0
 10
100.038970604914
 20
90.59276531513206
 30
0.0
 11
96.97901417820978
 21
85.29412089908266
 31
0.0
 11
98.55688479553888
 21
88.02717812688041
 31
0.0
 11
100.038970604914
 21
90.59276531513206
 31
0.0
  0
SPLINE
  5
327
330
1F
100
AcDbEntity
  8
0
  6
Continuous
 62
     7
100
AcDbSpline
210
0.0
220
0.0
230
1.0
 70
     8
 71
     3
 72
     9
 73
     5
 74
     3
 42
0.000000001
 43
0.0000000001
 44
0.00000001
 40
0.0
 40
0.0
 40
0.0
 40
0.0
 40
2.449763720032721
 40
5.082124236004965
 40
5.082124236004965
 40
5.082124236004965
 40
5.082124236004965
 10
100.2699107125912
 20
83.09204393546506
 30
0.0
 10
100.6778608413387
 20
83.79942822831067
 30
0.0
 10
101.5241682880234
 20
85.26692274826159
 30
0.0
 10
102.3714104361793
 20
86.7338778316695
 30
0.0
 10
102.810251897025
 20
87.49370864937276
 30
0.0
 11
100.2699107125912
 21
83.09204393546506
 31
0.0
 11
101.4939782923658
 21
85.21407146689432
 31
0.0
 11
102.810251897025
 21
87.49370864937276
 31
0.0
  0
SPLINE
  5
328
330
1F
100
AcDbEntity
  8
0
  6
Continuous
 62
     7
100
AcDbSpline
210
0.0
220
0.0
230
1.0
 70
     8
 71
     3
 72
     9
 73
     5
 74
     3
 42
0.000000001
 43
0.0000000001
 44
0.00000001
 40
0.0
 40
0.0
 40
0.0
 40
0.0
 40
2.2765325131115
 40
4.389249873266136
 40
4.389249873266136
 40
4.389249873266136
 40
4.389249873266136
 10
93.39944250923409
 20
86.89437674232997
 30
0.0
 10
93.77884120511665
 20
86.23718490360872
 30
0.0
 10
94.51033773711863
 20
84.97009154957277
 30
0.0
 10
95.24145719559884
 20
83.70278058566262
 30
0.0
 10
95.59337353215474
 20
83.09277432659246
 30
0.0
 11
93.39944250923409
 21
86.89437674232997
 31
0.0
 11
94.53753715130978
 21
84.92274268172518
 31
0.0
 11
95.59337353215474
 21
83.09277432659246
 31
0.0
  0
SPLINE
  5
329
330
1F
100
AcDbEntity
  8
0
  6
Continuous
 62
     7
100
AcDbSpline
210
0.0
220
0.0
230
1.0
 70
     8
 71
     3
 72
     9
 73
     5
 74
     3
 42
0.000000001
 43
0.0000000001
 44
0.00000001
 40
0.0
 40
0.0
 40
0.0
 40
0.0
 40
2.606448781744048
 40
5.428486982194028
 40
5.428486982194028
 40
5.428486982194028
 40
5.428486982194028
 10
96.11298877442536
 20
83.09204393546494
 30
0.0
 10
95.6788374297578
 20
83.84460909481137
 30
0.0
 10
94.7746243930163
 20
85.41198696668178
 30
0.0
 10
93.86981448818678
 20
86.97902035862063
 30
0.0
 10
93.39944250923409
 20
87.79365399036317
 30
0.0
 11
96.11298877442536
 21
83.09204393546494
 31
0.0
 11
94.81039713219621
 21
85.34965999349085
 31
0.0
 11
93.39944250923409
 21
87.79365399036317
 31
0.0
  0
SPLINE
  5
32A
330
1F
100
AcDbEntity
  8
0
  6
Continuous
 62
     7
100
AcDbSpline
210
0.0
220
0.0
230
1.0
 70
     8
 71
     3
 72
     9
 73
     5
 74
     3
 42
0.000000001
 43
0.0000000001
 44
0.00000001
 40
0.0
 40
0.0
 40
0.0
 40
0.0
 40
1.276174998963268
 40
2.540523435350885
 40
2.540523435350885
 40
2.540523435350885
 40
2.540523435350885
 10
95.7088435859927
 20
87.49433133796086
 30
0.0
 10
95.92155238694049
 20
87.12593883482045
 30
0.0
 10
96.34499875757736
 20
86.39256778370456
 30
0.0
 10
96.76833260709672
 20
85.65913177474046
 30
0.0
 10
96.97901417820978
 20
85.29412089908266
 30
0.0
 11
95.7088435859927
 21
87.49433133796086
 31
0.0
 11
96.3469415873035
 21
86.38913743248392
 31
0.0
 11
96.97901417820978
 21
85.29412089908266
 31
0.0
  0
SPLINE
  5
32B
330
1F
100
AcDbEntity
  8
0
  6
Continuous
 62
     7
100
AcDbSpline
210
0.0
220
0.0
230
1.0
 70
     8
 71
     3
 72
     9
 73
     5
 74
     3
 42
0.000000001
 43
0.0000000001
 44
0.00000001
 40
0.0
 40
0.0
 40
0.0
 40
0.0
 40
0.7552046148231507
 40
1.500878690278341
 40
1.500878690278341
 40
1.500878690278341
 40
1.500878690278341
 10
96.97901417820967
 20
87.09374967288807
 30
0.0
 10
96.85313790137842
 20
87.31175336230396
 30
0.0
 10
96.60297386519555
 20
87.74500956581599
 30
0.0
 10
96.35276757857746
 20
88.17824137098818
 30
0.0
 10
96.22845882826286
 20
88.39348176344197
 30
0.0
 11
96.97901417820967
 21
87.09374967288807
 31
0.0
 11
96.60137464176603
 21
87.74775455877601
 31
0.0
 11
96.22845882826286
 21
88.39348176344197
 31
0.0
  0
SPLINE
  5
32C
330
1F
100
AcDbEntity
  8
0
  6
Continuous
 62
     7
100
AcDbSpline
210
0.0
220
0.0
230
1.0
 70
     8
 71
     3
 72
     9
 73
     5
 74
     3
 42
0.000000001
 43
0.0000000001
 44
0.00000001
 40
0.0
 40
0.0
 40
0.0
 40
0.0
 40
0.5887023912340199
 40
1.155369501277
 40
1.155369501277
 40
1.155369501277
 40
1.155369501277
 10
93.39944250923426
 20
84.09354670319627
 30
0.0
 10
93.49751089936755
 20
83.92357486774776
 30
0.0
 10
93.68997693735933
 20
83.5899932761603
 30
0.0
 10
93.88241087453055
 20
83.25639316548538
 30
0.0
 10
93.97679277842363
 20
83.09277432659226
 30
0.0
 11
93.39944250923426
 21
84.09354670319627
 31
0.0
 11
93.69363933639679
 21
83.58362638360454
 31
0.0
 11
93.97679277842363
 21
83.09277432659226
 31
0.0
  0
SPLINE
  5
32D
330
1F
100
AcDbEntity
  8
0
  6
Continuous
 62
     7
100
AcDbSpline
210
0.0
220
0.0
230
1.0
 70
     8
 71
     3
 72
     9
 73
     5
 74
     3
 42
0.000000001
 43
0.0000000001
 44
0.00000001
 40
0.0
 40
0.0
 40
0.0
 40
0.0
 40
0.5241519067597206
 40
1.051528298136142
 40
1.051528298136142
 40
1.051528298136142
 40
1.051528298136142
 10
97.50456952815628
 20
88.00452038528175
 30
0.0
 10
97.41729160249368
 20
87.85316417973033
 30
0.0
 10
97.24219881634974
 20
87.54952066351927
 30
0.0
 10
97.06692155779069
 20
87.24598359597225
 30
0.0
 10
96.97901417820967
 20
87.09374967288807
 30
0.0
 11
97.50456952815628
 21
88.00452038528175
 31
0.0
 11
97.24268990686161
 21
87.55047822279842
 31
0.0
 11
96.97901417820967
 21
87.09374967288807
 31
0.0
  0
SPLINE
  5
32E
330
1F
100
AcDbEntity
  8
0
  6
Continuous
 62
     7
100
AcDbSpline
210
0.0
220
0.0
230
1.0
 70
     8
 71
     3
 72
     9
 73
     5
 74
     3
 42
0.000000001
 43
0.0000000001
 44
0.00000001
 40
0.0
 40
0.0
 40
0.0
 40
0.0
 40
0.5166485468881151
 40
1.038494839193206
 40
1.038494839193206
 40
1.038494839193206
 40
1.038494839193206
 10
96.22845882826286
 20
88.39348176344197
 30
0.0
 10
96.1423346817072
 20
88.24434744040552
 30
0.0
 10
95.96921991884959
 20
87.94457843769861
 30
0.0
 10
95.79592482111406
 20
87.64491364951631
 30
0.0
 10
95.7088435859927
 20
87.49433133796086
 30
0.0
 11
96.22845882826286
 21
88.39348176344197
 31
0.0
 11
95.97004174646882
 21
87.94610459276747
 31
0.0
 11
95.7088435859927
 21
87.49433133796086
 31
0.0
  0
SPLINE
  5
32F
330
1F
100
AcDbEntity
  8
0
  6
Continuous
 62
     7
100
AcDbSpline
210
0.0
220
0.0
230
1.0
 70
     8
 71
     3
 72
     9
 73
     5
 74
     3
 42
0.000000001
 43
0.0000000001
 44
0.00000001
 40
0.0
 40
0.0
 40
0.0
 40
0.0
 40
1.060138741418909
 40
2.195077448905213
 40
2.195077448905213
 40
2.195077448905213
 40
2.195077448905213
 10
94.49640802069487
 20
83.09204393546506
 30
0.0
 10
94.31983897706637
 20
83.39814931158605
 30
0.0
 10
93.95424273094488
 20
84.0319578606491
 30
0.0
 10
93.58852996006145
 20
84.66569918126962
 30
0.0
 10
93.39944250923443
 20
84.99336759420297
 30
0.0
 11
94.49640802069487
 21
83.09204393546506
 31
0.0
 11
93.9666737020632
 21
84.0103443779796
 31
0.0
 11
93.39944250923443
 21
84.99336759420297
 31
0.0
  0
SPLINE
  5
330
330
1F
100
AcDbEntity
  8
0
  6
Continuous
 62
     7
100
AcDbSpline
210
0.0
220
0.0
230
1.0
 70
     8
 71
     3
 72
    43
 73
    39
 74
    37
 42
0.000000001
 43
0.0000000001
 44
0.00000001
 40
0.0
 40
0.0
 40
0.0
 40
0.0
 40
0.0023691998094991
 40
0.0094227837278981
 40
0.0211123972292786
 40
0.0373863908065026
 40
0.058192748333143
 40
0.0834793536758216
 40
0.1131940522408346
 40
0.1472846714903431
 40
0.1856990293902042
 40
0.2283849384114203
 40
0.2752902076263716
 40
0.3263626438936946
 40
0.3815500525691357
 40
0.440800237953358
 40
0.5040610035851512
 40
0.5712801524406061
 40
0.6424054870712264
 40
0.7173848097034606
 40
0.7961659223108355
 40
0.8786966266678781
 40
0.9864906739612326
 40
1.098738475980307
 40
1.215193900511073
 40
1.335610815071841
 40
1.459743086970215
 40
1.587344583346226
 40
1.718169171207216
 40
1.851970717454999
 40
1.988503088908303
 40
2.1275201523213
 40
2.268775774399127
 40
2.412023821811115
 40
2.557018161202626
 40
2.703512659205611
 40
2.851261182447636
 40
3.000017597984395
 40
3.000017597984395
 40
3.000017597984395
 40
3.000017597984395
 10
132.4142482798881
 20
79.82221792106535
 30
0.0
 10
132.4134612329635
 20
79.82228481715218
 30
0.0
 10
132.410330991077
 20
79.82255090049294
 30
0.0
 10
132.4032870883642
 20
79.82257652532867
 30
0.0
 10
132.3916204373432
 20
79.82282040777065
 30
0.0
 10
132.3753626955963
 20
79.82296225584669
 30
0.0
 10
132.3545752117732
 20
79.82315009228837
 30
0.0
 10
132.3293063126099
 20
79.82332051917021
 30
0.0
 10
132.2996096042273
 20
79.82349586876165
 30
0.0
 10
132.2655367802237
 20
79.82366757182048
 30
0.0
 10
132.2271402036384
 20
79.82383797558094
 30
0.0
 10
132.1844720176767
 20
79.82400590080822
 30
0.0
 10
132.1375844379702
 20
79.82417136548604
 30
0.0
 10
132.0865296579666
 20
79.82433404249171
 30
0.0
 10
132.0313598783809
 20
79.82449373203366
 30
0.0
 10
131.972127297926
 20
79.82465020828414
 30
0.0
 10
131.908884116054
 20
79.82480326183182
 30
0.0
 10
131.8416825320799
 20
79.8249526841895
 30
0.0
 10
131.7705747454145
 20
79.82509827073423
 30
0.0
 10
131.6956129554773
 20
79.82523981851429
 30
0.0
 10
131.616849361709
 20
79.82537712682664
 30
0.0
 10
131.5271475230142
 20
79.82552156914053
 30
0.0
 10
131.4262901139806
 20
79.82567000689657
 30
0.0
 10
131.3141244553098
 20
79.82581948475755
 30
0.0
 10
131.197751159172
 20
79.82595974390854
 30
0.0
 10
131.0774163597553
 20
79.82609062002072
 30
0.0
 10
130.9533661912451
 20
79.82621194895269
 30
0.0
 10
130.8258467878392
 20
79.82632356803917
 30
0.0
 10
130.6951042837406
 20
79.82642531543158
 30
0.0
 10
130.5613848131572
 20
79.82651702990984
 30
0.0
 10
130.4249345103002
 20
79.82659855124763
 30
0.0
 10
130.2859995093835
 20
79.82666971806208
 30
0.0
 10
130.1448259446229
 20
79.82673037561915
 30
0.0
 10
130.0016599502358
 20
79.82678034564853
 30
0.0
 10
129.8567476604406
 20
79.82681954103548
 30
0.0
 10
129.7103352094568
 20
79.82684753001692
 30
0.0
 10
129.5626687313639
 20
79.82686518668348
 30
0.0
 10
129.4638337517459
 20
79.82686735995017
 30
0.0
 10
129.414248279888
 20
79.82686845760057
 30
0.0
 11
132.4142482798881
 21
79.82221792106535
 31
0.0
 11
132.4118862823524
 21
79.8224025130869
 31
0.0
 11
132.4048350894071
 21
79.82258615400212
 31
0.0
 11
132.3931469005453
 21
79.8227686484564
 31
0.0
 11
132.3768739152602
 21
79.82294980109506
 31
0.0
 11
132.3560683330447
 21
79.82312941656342
 31
0.0
 11
132.3307823533919
 21
79.82330729950684
 31
0.0
 11
132.3010681757949
 21
79.82348325457066
 31
0.0
 11
132.2669779997467
 21
79.8236570864002
 31
0.0
 11
132.2285640247404
 21
79.82382859964082
 31
0.0
 11
132.185878450269
 21
79.82399759893786
 31
0.0
 11
132.1389734758256
 21
79.82416388893664
 31
0.0
 11
132.0879013009032
 21
79.82432727428252
 31
0.0
 11
132.0327141249949
 21
79.82448755962083
 31
0.0
 11
131.9734641475937
 21
79.82464454959693
 31
0.0
 11
131.9102035681928
 21
79.82479804885611
 31
0.0
 11
131.842984586285
 21
79.82494786204376
 31
0.0
 11
131.7718594013637
 21
79.82509379380518
 31
0.0
 11
131.6968802129216
 21
79.82523564878574
 31
0.0
 11
131.618099220452
 21
79.82537323163078
 31
0.0
 11
131.5355686234478
 21
79.8255063469856
 31
0.0
 11
131.4277746934448
 21
79.8256653634163
 31
0.0
 11
131.3155269915211
 21
79.82581526611689
 31
0.0
 11
131.1990716519035
 21
79.82595589704334
 31
0.0
 11
131.0786548088188
 21
79.8260870981516
 31
0.0
 11
130.9545225964935
 21
79.82620871139763
 31
0.0
 11
130.8269211491546
 21
79.8263205787374
 31
0.0
 11
130.6960966010286
 21
79.82642254212683
 31
0.0
 11
130.5622950863423
 21
79.82651444352192
 31
0.0
 11
130.4257627393224
 21
79.82659612487859
 31
0.0
 11
130.2867456941957
 21
79.82666742815283
 31
0.0
 11
130.1454900851889
 21
79.82672819530059
 31
0.0
 11
130.0022420465286
 21
79.82677826827782
 31
0.0
 11
129.8572477124417
 21
79.82681748904047
 31
0.0
 11
129.7107532171548
 21
79.8268456995445
 31
0.0
 11
129.5630046948947
 21
79.82686274174588
 31
0.0
 11
129.414248279888
 21
79.82686845760057
 31
0.0
  0
SPLINE
  5
331
330
1F
100
AcDbEntity
  8
0
  6
Continuous
 62
     7
100
AcDbSpline
210
0.0
220
0.0
230
1.0
 70
     8
 71
     3
 72
    11
 73
     7
 74
     5
 42
0.000000001
 43
0.0000000001
 44
0.00000001
 40
0.0
 40
0.0
 40
0.0
 40
0.0
 40
1.159823787062808
 40
2.240406879516695
 40
3.197785587189025
 40
4.057461460718753
 40
4.057461460718753
 40
4.057461460718753
 40
4.057461460718753
 10
129.414248279888
 20
96.72069828341486
 30
0.0
 10
129.8030913895488
 20
96.75150871096596
 30
0.0
 10
130.5542113310918
 20
96.8110245706761
 30
0.0
 10
131.5278666684839
 20
97.28173526539238
 30
0.0
 10
132.2593682785247
 20
97.98721024048741
 30
0.0
 10
132.3645060324378
 20
98.59763268395473
 30
0.0
 10
132.4142482798881
 20
98.88643273227956
 30
0.0
 11
129.414248279888
 21
96.72069828341486
 31
0.0
 11
130.5622950863422
 21
96.88556108577738
 31
0.0
 11
131.5355686234477
 21
97.35502721723796
 31
0.0
 11
132.1858784502688
 21
98.05764455973053
 31
0.0
 11
132.4142482798881
 21
98.88643273227956
 31
0.0
  0
SPLINE
  5
332
330
1F
100
AcDbEntity
  8
0
  6
Continuous
 62
     7
100
AcDbSpline
210
0.0
220
0.0
230
1.0
 70
     8
 71
     3
 72
    11
 73
     7
 74
     5
 42
0.000000001
 43
0.0000000001
 44
0.00000001
 40
0.0
 40
0.0
 40
0.0
 40
0.0
 40
0.859675873529617
 40
1.817054581201898
 40
2.897637673655791
 40
4.057461460718575
 40
4.057461460718575
 40
4.057461460718575
 40
4.057461460718575
 10
68.41424827988797
 20
98.88643273227945
 30
0.0
 10
68.46399052733824
 20
98.59763268395469
 30
0.0
 10
68.5691282812513
 20
97.98721024048736
 30
0.0
 10
69.3006298912921
 20
97.28173526539234
 30
0.0
 10
70.27428522868416
 20
96.8110245706761
 30
0.0
 10
71.02540517022716
 20
96.75150871096601
 30
0.0
 10
71.41424827988797
 20
96.72069828341495
 30
0.0
 11
68.41424827988797
 21
98.88643273227945
 31
0.0
 11
68.64261810950718
 21
98.05764455973052
 31
0.0
 11
69.29292793632831
 21
97.35502721723796
 31
0.0
 11
70.2662014734338
 21
96.8855610857774
 31
0.0
 11
71.41424827988797
 21
96.72069828341495
 31
0.0
  0
SPLINE
  5
333
330
1F
100
AcDbEntity
  8
0
  6
Continuous
 62
     7
100
AcDbSpline
210
0.0
220
0.0
230
1.0
 70
     8
 71
     3
 72
    43
 73
    39
 74
    37
 42
0.000000001
 43
0.0000000001
 44
0.00000001
 40
0.0
 40
0.0
 40
0.0
 40
0.0
 40
0.0023691998095841
 40
0.0094227837280399
 40
0.0211123972294631
 40
0.0373863908067581
 40
0.0581927483334695
 40
0.0834793536761623
 40
0.1131940522412322
 40
0.1472846714907975
 40
0.1856990293906871
 40
0.2283849384119458
 40
0.2752902076269113
 40
0.3263626438942769
 40
0.3815500525697322
 40
0.4408002379539687
 40
0.5040610035858187
 40
0.5712801524412594
 40
0.6424054870718796
 40
0.7173848097041139
 40
0.7961659223114887
 40
0.8786966266685171
 40
0.9864906739618716
 40
1.098738475980903
 40
1.215193900511641
 40
1.335610815072423
 40
1.45974308697074
 40
1.587344583346723
 40
1.718169171207642
 40
1.851970717455354
 40
1.98850308890863
 40
2.127520152321598
 40
2.268775774399368
 40
2.412023821811285
 40
2.557018161202768
 40
2.703512659205668
 40
2.85126118244765
 40
3.000017597984338
 40
3.000017597984338
 40
3.000017597984338
 40
3.000017597984338
 10
68.41424827988791
 20
79.82221792106535
 30
0.0
 10
68.41503532681256
 20
79.82228481715215
 30
0.0
 10
68.41816556869911
 20
79.82255090049296
 30
0.0
 10
68.42520947141195
 20
79.82257652532861
 30
0.0
 10
68.43687612243299
 20
79.8228204077707
 30
0.0
 10
68.45313386418006
 20
79.82296225584669
 30
0.0
 10
68.47392134800313
 20
79.82315009228839
 30
0.0
 10
68.49919024716654
 20
79.8233205191702
 30
0.0
 10
68.52888695554907
 20
79.82349586876167
 30
0.0
 10
68.56295977955284
 20
79.82366757182047
 30
0.0
 10
68.60135635613801
 20
79.82383797558096
 30
0.0
 10
68.64402454209984
 20
79.82400590080822
 30
0.0
 10
68.69091212180645
 20
79.82417136548602
 30
0.0
 10
68.74196690180996
 20
79.82433404249173
 30
0.0
 10
68.79713668139576
 20
79.82449373203363
 30
0.0
 10
68.8563692618506
 20
79.82465020828417
 30
0.0
 10
68.91961244372268
 20
79.82480326183183
 30
0.0
 10
68.98681402769674
 20
79.8249526841895
 30
0.0
 10
69.05792181436225
 20
79.82509827073422
 30
0.0
 10
69.1328836042993
 20
79.82523981851429
 30
0.0
 10
69.21164719806768
 20
79.82537712682667
 30
0.0
 10
69.30134903676243
 20
79.82552156914053
 30
0.0
 10
69.40220644579608
 20
79.82567000689657
 30
0.0
 10
69.51437210446684
 20
79.82581948475755
 30
0.0
 10
69.6307454006046
 20
79.8259597439085
 30
0.0
 10
69.75108020002128
 20
79.82609062002072
 30
0.0
 10
69.87513036853152
 20
79.82621194895273
 30
0.0
 10
70.00264977193729
 20
79.82632356803914
 30
0.0
 10
70.13339227603586
 20
79.8264253154316
 30
0.0
 10
70.2671117466192
 20
79.82651702990981
 30
0.0
 10
70.40356204947616
 20
79.82659855124763
 30
0.0
 10
70.54249705039283
 20
79.82666971806209
 30
0.0
 10
70.68367061515337
 20
79.82673037561915
 30
0.0
 10
70.82683660954044
 20
79.82678034564856
 30
0.0
 10
70.97174889933552
 20
79.82681954103548
 30
0.0
 10
71.11816135031933
 20
79.8268475300169
 30
0.0
 10
71.26582782841217
 20
79.82686518668348
 30
0.0
 10
71.36466280803009
 20
79.82686735995017
 30
0.0
 10
71.41424827988797
 20
79.82686845760057
 30
0.0
 11
68.41424827988791
 21
79.82221792106535
 31
0.0
 11
68.41661027742376
 21
79.8224025130869
 31
0.0
 11
68.4236614703691
 21
79.82258615400212
 31
0.0
 11
68.43534965923088
 21
79.8227686484564
 31
0.0
 11
68.45162264451608
 21
79.82294980109506
 31
0.0
 11
68.47242822673162
 21
79.82312941656342
 31
0.0
 11
68.49771420638444
 21
79.82330729950684
 31
0.0
 11
68.52742838398152
 21
79.82348325457066
 31
0.0
 11
68.56151856002975
 21
79.8236570864002
 31
0.0
 11
68.59993253503613
 21
79.82382859964082
 31
0.0
 11
68.64261810950758
 21
79.82399759893786
 31
0.0
 11
68.68952308395102
 21
79.82416388893664
 31
0.0
 11
68.74059525887344
 21
79.82432727428252
 31
0.0
 11
68.79578243478176
 21
79.82448755962083
 31
0.0
 11
68.85503241218294
 21
79.82464454959693
 31
0.0
 11
68.91829299158391
 21
79.82479804885611
 31
0.0
 11
68.98551197349164
 21
79.82494786204376
 31
0.0
 11
69.05663715841304
 21
79.82509379380518
 31
0.0
 11
69.13161634685507
 21
79.82523564878574
 31
0.0
 11
69.21039733932469
 21
79.82537323163078
 31
0.0
 11
69.29292793632882
 21
79.8255063469856
 31
0.0
 11
69.40072186633185
 21
79.8256653634163
 31
0.0
 11
69.5129695682555
 21
79.82581526611689
 31
0.0
 11
69.62942490787307
 21
79.82595589704334
 31
0.0
 11
69.7498417509578
 21
79.8260870981516
 31
0.0
 11
69.87397396328299
 21
79.82620871139763
 31
0.0
 11
70.00157541062192
 21
79.8263205787374
 31
0.0
 11
70.13239995874787
 21
79.82642254212683
 31
0.0
 11
70.26620147343411
 21
79.82651444352192
 31
0.0
 11
70.40273382045393
 21
79.82659612487859
 31
0.0
 11
70.54175086558058
 21
79.82666742815283
 31
0.0
 11
70.68300647458739
 21
79.82672819530059
 31
0.0
 11
70.82625451324758
 21
79.82677826827782
 31
0.0
 11
70.97124884733445
 21
79.82681748904047
 31
0.0
 11
71.1177433426213
 21
79.8268456995445
 31
0.0
 11
71.26549186488137
 21
79.82686274174588
 31
0.0
 11
71.41424827988797
 21
79.82686845760057
 31
0.0
  0
LWPOLYLINE
  5
334
330
1F
100
AcDbEntity
  8
0
  6
Continuous
 62
     7
 60
     1
100
AcDbPolyline
 90
        2
 70
     0
 43
0.0
 10
-1631.283711915009
 20
2871.712995504048
 10
-1595.200007604261
 20
2881.172166975909
  0
LWPOLYLINE
  5
335
330
1F
100
AcDbEntity
  8
0
  6
Continuous
 62
     7
 60
     1
100
AcDbPolyline
 90
        2
 70
     0
 43
0.0
 10
-1916.28371191501
 20
2871.712995504048
 10
-1880.20000760427
 20
2853.272166975919
  0
LWPOLYLINE
  5
336
330
1F
100
AcDbEntity
  8
0
  6
Continuous
 62
     7
 60
     1
100
AcDbPolyline
 90
        2
 70
     0
 43
0.0
 10
-2032.677930897301
 20
2871.712995504048
 10
-1996.59422658655
 20
2848.272166975919
  0
LWPOLYLINE
  5
337
330
1F
100
AcDbEntity
  8
0
  6
Continuous
 62
     7
 60
     1
100
AcDbPolyline
 90
        2
 70
     0
 43
0.0
 10
-1631.283711915009
 20
2871.712995504048
 10
-1595.200007604261
 20
2881.172166975909
  0
LWPOLYLINE
  5
338
330
1F
100
AcDbEntity
  8
0
  6
Continuous
 62
     7
 60
     1
100
AcDbPolyline
 90
        2
 70
     0
 43
0.0
 10
-1916.28371191501
 20
2871.712995504048
 10
-1880.20000760427
 20
2853.272166975919
  0
LWPOLYLINE
  5
339
330
1F
100
AcDbEntity
  8
0
  6
Continuous
 62
     7
 60
     1
100
AcDbPolyline
 90
        2
 70
     0
 43
0.0
 10
-2032.677930897301
 20
2871.712995504048
 10
-1996.59422658655
 20
2848.272166975919
  0
LWPOLYLINE
  5
33A
330
1F
100
AcDbEntity
  8
0
  6
Continuous
 62
     7
 60
     1
100
AcDbPolyline
 90
        2
 70
     0
 43
0.0
 10
-1637.511131269848
 20
2875.887441068564
 10
-1601.4274269591
 20
2885.346612540423
  0
LWPOLYLINE
  5
33B
330
1F
100
AcDbEntity
  8
0
  6
Continuous
 62
     7
 60
     1
100
AcDbPolyline
 90
        2
 70
     0
 43
0.0
 10
-1922.511131269849
 20
2875.887441068564
 10
-1886.427426959109
 20
2857.446612540434
  0
LWPOLYLINE
  5
33C
330
1F
100
AcDbEntity
  8
0
  6
Continuous
 62
     7
 60
     1
100
AcDbPolyline
 90
        2
 70
     0
 43
0.0
 10
-2038.905350252141
 20
2875.887441068564
 10
-2002.821645941389
 20
2852.446612540434
  0
LWPOLYLINE
  5
33D
330
1F
100
AcDbEntity
  8
0
  6
Continuous
 62
     7
 60
     1
100
AcDbPolyline
 90
        2
 70
     0
 43
0.0
 10
-1619.236713543109
 20
2877.219992669251
 10
-1583.153009232361
 20
2886.679164141111
  0
LWPOLYLINE
  5
33E
330
1F
100
AcDbEntity
  8
0
  6
Continuous
 62
     7
 60
     1
100
AcDbPolyline
 90
        2
 70
     0
 43
0.0
 10
-1904.23671354311
 20
2877.219992669251
 10
-1868.15300923237
 20
2858.77916414112
  0
LWPOLYLINE
  5
33F
330
1F
100
AcDbEntity
  8
0
  6
Continuous
 62
     7
 60
     1
100
AcDbPolyline
 90
        2
 70
     0
 43
0.0
 10
-2020.630932525401
 20
2877.219992669251
 10
-1984.54722821465
 20
2853.77916414112
  0
LWPOLYLINE
  5
340
330
1F
100
AcDbEntity
  8
0
  6
Continuous
 62
     7
 60
     1
100
AcDbPolyline
 90
        2
 70
     0
 43
0.0
 10
-1619.236713543109
 20
2877.219992669251
 10
-1583.153009232361
 20
2886.679164141111
  0
LWPOLYLINE
  5
341
330
1F
100
AcDbEntity
  8
0
  6
Continuous
 62
     7
 60
     1
100
AcDbPolyline
 90
        2
 70
     0
 43
0.0
 10
-1904.23671354311
 20
2877.219992669251
 10
-1868.15300923237
 20
2858.77916414112
  0
LWPOLYLINE
  5
342
330
1F
100
AcDbEntity
  8
0
  6
Continuous
 62
     7
 60
     1
100
AcDbPolyline
 90
        2
 70
     0
 43
0.0
 10
-2020.630932525401
 20
2877.219992669251
 10
-1984.54722821465
 20
2853.77916414112
  0
LWPOLYLINE
  5
343
330
1F
100
AcDbEntity
  8
0
  6
Continuous
 62
     7
 60
     1
100
AcDbPolyline
 90
        2
 70
     0
 43
0.0
 10
-1625.464132897948
 20
2881.394438233768
 10
-1589.3804285872
 20
2890.853609705627
  0
LWPOLYLINE
  5
344
330
1F
100
AcDbEntity
  8
0
  6
Continuous
 62
     7
 60
     1
100
AcDbPolyline
 90
        2
 70
     0
 43
0.0
 10
-1910.46413289795
 20
2881.394438233768
 10
-1874.380428587209
 20
2862.953609705637
  0
LWPOLYLINE
  5
345
330
1F
100
AcDbEntity
  8
0
  6
Continuous
 62
     7
 60
     1
100
AcDbPolyline
 90
        2
 70
     0
 43
0.0
 10
-2026.858351880241
 20
2881.394438233768
 10
-1990.774647569489
 20
2857.953609705637
  0
LWPOLYLINE
  5
346
330
1F
100
AcDbEntity
  8
0
  6
Continuous
 62
     7
 60
     1
100
AcDbPolyline
 90
        2
 70
     0
 43
0.0
 10
-1365.675102393272
 20
3111.555963005492
 10
-1329.591398082524
 20
3121.015134477353
  0
LWPOLYLINE
  5
347
330
1F
100
AcDbEntity
  8
0
  6
Continuous
 62
     7
 60
     1
100
AcDbPolyline
 90
        2
 70
     0
 43
0.0
 10
-1650.675102393273
 20
3111.555963005492
 10
-1614.591398082533
 20
3093.115134477363
  0
LWPOLYLINE
  5
348
330
1F
100
AcDbEntity
  8
0
  6
Continuous
 62
     7
 60
     1
100
AcDbPolyline
 90
        2
 70
     0
 43
0.0
 10
-1767.069321375564
 20
3111.555963005492
 10
-1730.985617064813
 20
3088.115134477363
  0
LWPOLYLINE
  5
349
330
1F
100
AcDbEntity
  8
0
  6
Continuous
 62
     7
 60
     1
100
AcDbPolyline
 90
        2
 70
     0
 43
0.0
 10
-1365.675102393272
 20
3111.555963005492
 10
-1329.591398082524
 20
3121.015134477353
  0
LWPOLYLINE
  5
34A
330
1F
100
AcDbEntity
  8
0
  6
Continuous
 62
     7
 60
     1
100
AcDbPolyline
 90
        2
 70
     0
 43
0.0
 10
-1650.675102393273
 20
3111.555963005492
 10
-1614.591398082533
 20
3093.115134477363
  0
LWPOLYLINE
  5
34B
330
1F
100
AcDbEntity
  8
0
  6
Continuous
 62
     7
 60
     1
100
AcDbPolyline
 90
        2
 70
     0
 43
0.0
 10
-1767.069321375564
 20
3111.555963005492
 10
-1730.985617064813
 20
3088.115134477363
  0
LWPOLYLINE
  5
34C
330
1F
100
AcDbEntity
  8
0
  6
Continuous
 62
     7
 60
     1
100
AcDbPolyline
 90
        2
 70
     0
 43
0.0
 10
-1371.902521748111
 20
3115.730408570008
 10
-1335.818817437363
 20
3125.189580041867
  0
LWPOLYLINE
  5
34D
330
1F
100
AcDbEntity
  8
0
  6
Continuous
 62
     7
 60
     1
100
AcDbPolyline
 90
        2
 70
     0
 43
0.0
 10
-1656.902521748112
 20
3115.730408570008
 10
-1620.818817437372
 20
3097.289580041878
  0
LWPOLYLINE
  5
34E
330
1F
100
AcDbEntity
  8
0
  6
Continuous
 62
     7
 60
     1
100
AcDbPolyline
 90
        2
 70
     0
 43
0.0
 10
-1773.296740730404
 20
3115.730408570008
 10
-1737.213036419652
 20
3092.289580041878
  0
LWPOLYLINE
  5
34F
330
1F
100
AcDbEntity
  8
0
  6
Continuous
 62
     7
 60
     1
100
AcDbPolyline
 90
        2
 70
     0
 43
0.0
 10
-1353.628104021372
 20
3117.062960170695
 10
-1317.544399710624
 20
3126.522131642555
  0
LWPOLYLINE
  5
350
330
1F
100
AcDbEntity
  8
0
  6
Continuous
 62
     7
 60
     1
100
AcDbPolyline
 90
        2
 70
     0
 43
0.0
 10
-1638.628104021373
 20
3117.062960170695
 10
-1602.544399710633
 20
3098.622131642565
  0
LWPOLYLINE
  5
351
330
1F
100
AcDbEntity
  8
0
  6
Continuous
 62
     7
 60
     1
100
AcDbPolyline
 90
        2
 70
     0
 43
0.0
 10
-1755.022323003664
 20
3117.062960170695
 10
-1718.938618692913
 20
3093.622131642565
  0
LWPOLYLINE
  5
352
330
1F
100
AcDbEntity
  8
0
  6
Continuous
 62
     7
 60
     1
100
AcDbPolyline
 90
        2
 70
     0
 43
0.0
 10
-1353.628104021372
 20
3117.062960170695
 10
-1317.544399710624
 20
3126.522131642555
  0
LWPOLYLINE
  5
353
330
1F
100
AcDbEntity
  8
0
  6
Continuous
 62
     7
 60
     1
100
AcDbPolyline
 90
        2
 70
     0
 43
0.0
 10
-1638.628104021373
 20
3117.062960170695
 10
-1602.544399710633
 20
3098.622131642565
  0
LWPOLYLINE
  5
354
330
1F
100
AcDbEntity
  8
0
  6
Continuous
 62
     7
 60
     1
100
AcDbPolyline
 90
        2
 70
     0
 43
0.0
 10
-1755.022323003664
 20
3117.062960170695
 10
-1718.938618692913
 20
3093.622131642565
  0
LWPOLYLINE
  5
355
330
1F
100
AcDbEntity
  8
0
  6
Continuous
 62
     7
 60
     1
100
AcDbPolyline
 90
        2
 70
     0
 43
0.0
 10
-1359.855523376211
 20
3121.237405735212
 10
-1323.771819065463
 20
3130.696577207071
  0
LWPOLYLINE
  5
356
330
1F
100
AcDbEntity
  8
0
  6
Continuous
 62
     7
 60
     1
100
AcDbPolyline
 90
        2
 70
     0
 43
0.0
 10
-1644.855523376213
 20
3121.237405735212
 10
-1608.771819065472
 20
3102.796577207081
  0
LWPOLYLINE
  5
357
330
1F
100
AcDbEntity
  8
0
  6
Continuous
 62
     7
 60
     1
100
AcDbPolyline
 90
        2
 70
     0
 43
0.0
 10
-1761.249742358504
 20
3121.237405735212
 10
-1725.166038047752
 20
3097.796577207081
  0
LWPOLYLINE
  5
358
330
1F
100
AcDbEntity
  8
0
  6
Continuous
 62
     7
 60
     1
100
AcDbPolyline
 90
        2
 70
     0
 43
0.0
 10
-1756.104848900709
 20
3121.471926673017
 10
-1720.021144589957
 20
3098.031098144886
  0
LWPOLYLINE
  5
359
330
1F
100
AcDbEntity
  8
0
  6
Continuous
 62
     7
 60
     1
100
AcDbPolyline
 90
        2
 70
     0
 43
0.0
 10
-1639.710629918418
 20
3121.471926673017
 10
-1603.626925607677
 20
3103.031098144886
  0
LWPOLYLINE
  5
35A
330
1F
100
AcDbEntity
  8
0
  6
Continuous
 62
     7
 60
     1
100
AcDbPolyline
 90
        2
 70
     0
 43
0.0
 10
-1354.710629918416
 20
3121.471926673017
 10
-1318.626925607668
 20
3130.931098144876
  0
LWPOLYLINE
  5
35B
330
1F
100
AcDbEntity
  8
0
  6
Continuous
 62
     7
 60
     1
100
AcDbPolyline
 90
        2
 70
     0
 43
0.0
 10
-1749.877429545869
 20
3117.2974811085
 10
-1713.793725235118
 20
3093.85665258037
  0
LWPOLYLINE
  5
35C
330
1F
100
AcDbEntity
  8
0
  6
Continuous
 62
     7
 60
     1
100
AcDbPolyline
 90
        2
 70
     0
 43
0.0
 10
-1633.483210563578
 20
3117.2974811085
 10
-1597.399506252838
 20
3098.85665258037
  0
LWPOLYLINE
  5
35D
330
1F
100
AcDbEntity
  8
0
  6
Continuous
 62
     7
 60
     1
100
AcDbPolyline
 90
        2
 70
     0
 43
0.0
 10
-1348.483210563577
 20
3117.2974811085
 10
-1312.399506252829
 20
3126.75665258036
  0
LWPOLYLINE
  5
35E
330
1F
100
AcDbEntity
  8
0
  6
Continuous
 62
     7
 60
     1
100
AcDbPolyline
 90
        2
 70
     0
 43
0.0
 10
-1749.877429545869
 20
3117.2974811085
 10
-1713.793725235118
 20
3093.85665258037
  0
LWPOLYLINE
  5
35F
330
1F
100
AcDbEntity
  8
0
  6
Continuous
 62
     7
 60
     1
100
AcDbPolyline
 90
        2
 70
     0
 43
0.0
 10
-1633.483210563578
 20
3117.2974811085
 10
-1597.399506252838
 20
3098.85665258037
  0
LWPOLYLINE
  5
360
330
1F
100
AcDbEntity
  8
0
  6
Continuous
 62
     7
 60
     1
100
AcDbPolyline
 90
        2
 70
     0
 43
0.0
 10
-1348.483210563577
 20
3117.2974811085
 10
-1312.399506252829
 20
3126.75665258036
  0
LWPOLYLINE
  5
361
330
1F
100
AcDbEntity
  8
0
  6
Continuous
 62
     7
 60
     1
100
AcDbPolyline
 90
        2
 70
     0
 43
0.0
 10
-1768.151847272609
 20
3115.964929507814
 10
-1732.068142961857
 20
3092.524100979683
  0
LWPOLYLINE
  5
362
330
1F
100
AcDbEntity
  8
0
  6
Continuous
 62
     7
 60
     1
100
AcDbPolyline
 90
        2
 70
     0
 43
0.0
 10
-1651.757628290317
 20
3115.964929507814
 10
-1615.673923979577
 20
3097.524100979683
  0
LWPOLYLINE
  5
363
330
1F
100
AcDbEntity
  8
0
  6
Continuous
 62
     7
 60
     1
100
AcDbPolyline
 90
        2
 70
     0
 43
0.0
 10
-1366.757628290316
 20
3115.964929507814
 10
-1330.673923979568
 20
3125.424100979673
  0
LWPOLYLINE
  5
364
330
1F
100
AcDbEntity
  8
0
  6
Continuous
 62
     7
 60
     1
100
AcDbPolyline
 90
        2
 70
     0
 43
0.0
 10
-1761.924427917769
 20
3111.790483943297
 10
-1725.840723607018
 20
3088.349655415168
  0
LWPOLYLINE
  5
365
330
1F
100
AcDbEntity
  8
0
  6
Continuous
 62
     7
 60
     1
100
AcDbPolyline
 90
        2
 70
     0
 43
0.0
 10
-1645.530208935478
 20
3111.790483943297
 10
-1609.446504624738
 20
3093.349655415168
  0
LWPOLYLINE
  5
366
330
1F
100
AcDbEntity
  8
0
  6
Continuous
 62
     7
 60
     1
100
AcDbPolyline
 90
        2
 70
     0
 43
0.0
 10
-1360.530208935477
 20
3111.790483943297
 10
-1324.446504624729
 20
3121.249655415158
  0
LWPOLYLINE
  5
367
330
1F
100
AcDbEntity
  8
0
  6
Continuous
 62
     7
 60
     1
100
AcDbPolyline
 90
        2
 70
     0
 43
0.0
 10
-1761.924427917769
 20
3111.790483943297
 10
-1725.840723607018
 20
3088.349655415168
  0
LWPOLYLINE
  5
368
330
1F
100
AcDbEntity
  8
0
  6
Continuous
 62
     7
 60
     1
100
AcDbPolyline
 90
        2
 70
     0
 43
0.0
 10
-1645.530208935478
 20
3111.790483943297
 10
-1609.446504624738
 20
3093.349655415168
  0
LWPOLYLINE
  5
369
330
1F
100
AcDbEntity
  8
0
  6
Continuous
 62
     7
 60
     1
100
AcDbPolyline
 90
        2
 70
     0
 43
0.0
 10
-1360.530208935477
 20
3111.790483943297
 10
-1324.446504624729
 20
3121.249655415158
  0
MTEXT
  5
36B
330
1F
100
AcDbEntity
  8
1
 62
     4
100
AcDbMText
 10
100.414248279888
 20
58.55659039355695
 30
0.0
 40
3.5
 41
0.0
 71
     2
 72
     1
  1
 
  7
CONVERTER_13
 73
     1
 44
1.32052821128451
  0
MTEXT
  5
36C
330
1F
100
AcDbEntity
  8
1
 62
     4
100
AcDbMText
 10
192.0933950826852
 20
58.55659039355695
 30
0.0
 40
3.5
 41
0.0
 71
     2
 72
     1
  1
 
  7
CONVERTER_13
 73
     1
 44
1.32052821128451
  0
DIMENSION
  5
377
330
1F
100
AcDbEntity
  8
1
100
AcDbDimension
  2
*D3
 10
169.795121489579
 20
97.28963412711495
 30
0.0
 11
166.295121489579
 21
126.2896341271148
 31
0.0
 70
    32
  1
<>
 71
     5
 42
-1.0
 53
90.0
  3
ME10_DIM_10
100
AcDbAlignedDimension
 13
184.2152487015599
 23
155.2896341271147
 33
0.0
 14
186.7152487015665
 24
97.28963412711497
 34
0.0
 50
90.0
100
AcDbRotatedDimension
  0
DIMENSION
  5
382
330
1F
100
AcDbEntity
  8
1
100
AcDbDimension
  2
*D4
 10
137.914248279888
 20
60.1483719894317
 30
0.0
 11
100.414248279888
 21
63.6483719894317
 31
0.0
 70
    32
  1
<>
 71
     5
 42
-1.0
 53
0.00013888888889
  3
ME10_DIM_11
100
AcDbAlignedDimension
 13
62.91424827988798
 23
79.78222330685887
 33
0.0
 14
137.914248279888
 24
79.78222330685895
 34
0.0
100
AcDbRotatedDimension
  0
DIMENSION
  5
38D
330
1F
100
AcDbEntity
  8
1
100
AcDbDimension
  2
*D5
 10
87.914248279888
 20
165.978925597866
 30
0.0
 11
100.414248279888
 21
169.478925597866
 31
0.0
 70
    32
  1
M25
 71
     5
 42
-1.0
 53
0.00013888888889
  3
ME10_DIM_12
100
AcDbAlignedDimension
 13
112.914248279888
 23
155.2896341271166
 33
0.0
 14
87.91424827988797
 24
155.3896341271173
 34
0.0
100
AcDbRotatedDimension
  0
DIMENSION
  5
398
330
1F
100
AcDbEntity
  8
1
100
AcDbDimension
  2
*D6
 10
223.7152487015617
 20
175.45380766943
 30
0.0
 11
202.2152487015617
 21
178.95380766943
 31
0.0
 70
    32
  1
<>
 71
     5
 42
-1.0
 53
0.00013888888889
  3
ME10_DIM_13
100
AcDbAlignedDimension
 13
180.7152487015617
 23
139.2896341271143
 33
0.0
 14
223.7152487015617
 24
139.2896341271191
 34
0.0
100
AcDbRotatedDimension
  0
DIMENSION
  5
3A3
330
1F
100
AcDbEntity
  8
1
100
AcDbDimension
  2
*D7
 10
180.7142487015664
 20
60.1483719894317
 30
0.0
 11
211.6080656786588
 21
63.6483719894317
 31
0.0
 70
    32
  1
63
 71
     5
 42
-1.0
 53
0.00013888888889
  3
ME10_DIM_14
100
AcDbAlignedDimension
 13
242.5018826557512
 23
104.7896341271166
 33
0.0
 14
180.7142487015665
 24
97.28963412711425
 34
0.0
100
AcDbRotatedDimension
  0
ENDSEC
  0
SECTION
  2
OBJECTS
  0
DICTIONARY
  5
C
330
0
100
AcDbDictionary
281
     1
  3
ACAD_GROUP
350
D
  3
ACAD_LAYOUT
350
1A
  3
ACAD_MATERIAL
350
3B
  3
ACAD_MLEADERSTYLE
350
3A6
  3
ACAD_MLINESTYLE
350
17
  3
ACAD_PLOTSETTINGS
350
19
  3
ACAD_PLOTSTYLENAME
350
E
  3
ACAD_VISUALSTYLE
350
2A
  3
AcDbVariableDictionary
350
3A4
  0
DICTIONARY
  5
D
102
{ACAD_REACTORS
330
C
102
}
330
C
100
AcDbDictionary
281
     1
  0
DICTIONARY
  5
1A
102
{ACAD_REACTORS
330
C
102
}
330
C
100
AcDbDictionary
281
     1
  3
Layout1
350
1E
  3
Layout2
350
26
  3
Model
350
22
  0
DICTIONARY
  5
3B
102
{ACAD_REACTORS
330
C
102
}
330
C
100
AcDbDictionary
281
     1
  3
ByBlock
350
3D
  3
ByLayer
350
3C
  3
Global
350
3E
  0
DICTIONARY
  5
3A6
102
{ACAD_REACTORS
330
C
102
}
330
C
100
AcDbDictionary
281
     1
  0
DICTIONARY
  5
17
102
{ACAD_REACTORS
330
C
102
}
330
C
100
AcDbDictionary
281
     1
  3
Standard
350
18
  0
DICTIONARY
  5
19
102
{ACAD_REACTORS
330
C
102
}
330
C
100
AcDbDictionary
281
     1
  0
ACDBDICTIONARYWDFLT
  5
E
102
{ACAD_REACTORS
330
C
102
}
330
C
100
AcDbDictionary
281
     1
  3
Normal
350
F
100
AcDbDictionaryWithDefault
340
F
  0
DICTIONARY
  5
2A
102
{ACAD_REACTORS
330
C
102
}
330
C
100
AcDbDictionary
281
     1
  3
2dWireframe
350
2F
  3
3D Hidden
350
31
  3
3dWireframe
350
30
  3
Basic
350
32
  3
Brighten
350
36
  3
ColorChange
350
3A
  3
Conceptual
350
34
  3
Dim
350
35
  3
Facepattern
350
39
  3
Flat
350
2B
  3
FlatWithEdges
350
2C
  3
Gouraud
350
2D
  3
GouraudWithEdges
350
2E
  3
Linepattern
350
38
  3
Realistic
350
33
  3
Thicken
350
37
  0
DICTIONARY
  5
3A4
102
{ACAD_REACTORS
330
C
102
}
330
C
100
AcDbDictionary
281
     1
  3
DIMASSOC
350
3A7
  3
HIDETEXT
350
3A8
  0
LAYOUT
  5
1E
102
{ACAD_REACTORS
330
1A
102
}
330
1A
100
AcDbPlotSettings
  1

  2
none_device
  4

  6

 40
0.0
 41
0.0
 42
0.0
 43
0.0
 44
0.0
 45
0.0
 46
0.0
 47
0.0
 48
0.0
 49
0.0
140
0.0
141
0.0
142
1.0
143
1.0
 70
   688
 72
     0
 73
     0
 74
     5
  7

 75
    16
147
1.0
148
0.0
149
0.0
100
AcDbLayout
  1
Layout1
 70
     1
 71
     1
 10
0.0
 20
0.0
 11
12.0
 21
9.0
 12
0.0
 22
0.0
 32
0.0
 14
1.00000000000000E+20
 24
1.00000000000000E+20
 34
1.00000000000000E+20
 15
-1.00000000000000E+20
 25
-1.00000000000000E+20
 35
-1.00000000000000E+20
146
0.0
 13
0.0
 23
0.0
 33
0.0
 16
1.0
 26
0.0
 36
0.0
 17
0.0
 27
1.0
 37
0.0
 76
     0
330
1B
  0
LAYOUT
  5
26
102
{ACAD_REACTORS
330
1A
102
}
330
1A
100
AcDbPlotSettings
  1

  2
none_device
  4

  6

 40
0.0
 41
0.0
 42
0.0
 43
0.0
 44
0.0
 45
0.0
 46
0.0
 47
0.0
 48
0.0
 49
0.0
140
0.0
141
0.0
142
1.0
143
1.0
 70
   688
 72
     0
 73
     0
 74
     5
  7

 75
    16
147
1.0
148
0.0
149
0.0
100
AcDbLayout
  1
Layout2
 70
     1
 71
     2
 10
0.0
 20
0.0
 11
0.0
 21
0.0
 12
0.0
 22
0.0
 32
0.0
 14
0.0
 24
0.0
 34
0.0
 15
0.0
 25
0.0
 35
0.0
146
0.0
 13
0.0
 23
0.0
 33
0.0
 16
1.0
 26
0.0
 36
0.0
 17
0.0
 27
1.0
 37
0.0
 76
     0
330
23
  0
LAYOUT
  5
22
102
{ACAD_REACTORS
330
1A
102
}
330
1A
100
AcDbPlotSettings
  1

  2
none_device
  4

  6

 40
0.0
 41
0.0
 42
0.0
 43
0.0
 44
0.0
 45
0.0
 46
0.0
 47
0.0
 48
0.0
 49
0.0
140
0.0
141
0.0
142
1.0
143
1.0
 70
  1712
 72
     0
 73
     0
 74
     0
  7

 75
     0
147
1.0
148
0.0
149
0.0
100
AcDbLayout
  1
Model
 70
     1
 71
     0
 10
0.0
 20
0.0
 11
12.0
 21
9.0
 12
0.0
 22
0.0
 32
0.0
 14
-5.14489345779498
 24
-0.23452093780543
 34
0.0
 15
291.8551065422055
 25
209.7654790621948
 35
0.0
146
0.0
 13
0.0
 23
0.0
 33
0.0
 16
1.0
 26
0.0
 36
0.0
 17
0.0
 27
1.0
 37
0.0
 76
     0
330
1F
331
29
  0
MATERIAL
  5
3D
102
{ACAD_REACTORS
330
3B
102
}
102
{ACAD_XDICTIONARY
360
3CB
102
}
330
3B
100
AcDbMaterial
  1
ByBlock
  0
MATERIAL
  5
3C
102
{ACAD_REACTORS
330
3B
102
}
102
{ACAD_XDICTIONARY
360
3C9
102
}
330
3B
100
AcDbMaterial
  1
ByLayer
  0
MATERIAL
  5
3E
102
{ACAD_REACTORS
330
3B
102
}
102
{ACAD_XDICTIONARY
360
3CD
102
}
330
3B
100
AcDbMaterial
  1
Global
  0
MLINESTYLE
  5
18
102
{ACAD_REACTORS
330
17
102
}
330
17
100
AcDbMlineStyle
  2
Standard
 70
     0
  3

 62
   256
 51
90.0
 52
90.0
 71
     2
 49
0.5
 62
   256
  6
BYLAYER
 49
-0.5
 62
   256
  6
BYLAYER
  0
ACDBPLACEHOLDER
  5
F
102
{ACAD_REACTORS
330
E
102
}
330
E
  0
VISUALSTYLE
  5
2F
102
{ACAD_REACTORS
330
2A
102
}
102
{ACAD_XDICTIONARY
360
3B1
102
}
330
2A
100
AcDbVisualStyle
  2
2dWireframe
 70
     4
 71
     0
 72
     2
 73
     0
 90
        0
 40
-0.6
 41
-30.0
 62
     5
 63
     7
 74
     1
 91
        4
 64
     7
 65
   257
 75
     1
175
     1
 42
1.0
 92
        0
 66
   257
 43
1.0
 76
     1
 77
     6
 78
     2
 67
     7
 79
     5
170
     0
171
     0
290
     0
174
     0
 93
        1
 44
0.0
173
     0
291
     0
 45
0.0
1001
ACAD
1000
AcDbSavedByObjectVersion
1070
     0
  0
VISUALSTYLE
  5
31
102
{ACAD_REACTORS
330
2A
102
}
102
{ACAD_XDICTIONARY
360
3B5
102
}
330
2A
100
AcDbVisualStyle
  2
3D Hidden
 70
     6
 71
     1
 72
     2
 73
     2
 90
        0
 40
-0.6
 41
-30.0
 62
     5
 63
     7
 74
     2
 91
        2
 64
     7
 65
   257
 75
     2
175
     1
 42
40.0
 92
        0
 66
   257
 43
1.0
 76
     1
 77
     6
 78
     2
 67
     7
 79
     3
170
     0
171
     0
290
     0
174
     0
 93
        1
 44
0.0
173
     0
291
     0
 45
0.0
1001
ACAD
1000
AcDbSavedByObjectVersion
1070
     0
  0
VISUALSTYLE
  5
30
102
{ACAD_REACTORS
330
2A
102
}
102
{ACAD_XDICTIONARY
360
3B3
102
}
330
2A
100
AcDbVisualStyle
  2
3dWireframe
 70
     5
 71
     0
 72
     2
 73
     0
 90
        0
 40
-0.6
 41
-30.0
 62
     5
 63
     7
 74
     1
 91
        4
 64
     7
 65
   257
 75
     1
175
     1
 42
1.0
 92
        0
 66
   257
 43
1.0
 76
     1
 77
     6
 78
     2
 67
     7
 79
     5
170
     0
171
     0
290
     0
174
     0
 93
        1
 44
0.0
173
     0
291
     0
 45
0.0
1001
ACAD
1000
AcDbSavedByObjectVersion
1070
     0
  0
VISUALSTYLE
  5
32
102
{ACAD_REACTORS
330
2A
102
}
102
{ACAD_XDICTIONARY
360
3B7
102
}
330
2A
100
AcDbVisualStyle
  2
Basic
 70
     7
 71
     1
 72
     0
 73
     1
 90
        0
 40
-0.6
 41
-30.0
 62
     5
 63
     7
 74
     0
 91
        4
 64
     7
 65
   257
 75
     1
175
     1
 42
1.0
 92
        8
 66
     7
 43
1.0
 76
     1
 77
     6
 78
     2
 67
     7
 79
     5
170
     0
171
     0
290
     0
174
     0
 93
        1
 44
0.0
173
     0
291
     1
 45
0.0
1001
ACAD
1000
AcDbSavedByObjectVersion
1070
     0
  0
VISUALSTYLE
  5
36
102
{ACAD_REACTORS
330
2A
102
}
102
{ACAD_XDICTIONARY
360
3BF
102
}
330
2A
100
AcDbVisualStyle
  2
Brighten
 70
    12
 71
     2
 72
     2
 73
     0
 90
        0
 40
-0.6
 41
-30.0
 62
     5
 63
     7
 74
     1
 91
        4
 64
     7
 65
   257
 75
     1
175
     1
 42
1.0
 92
        8
 66
     7
 43
1.0
 76
     1
 77
     6
 78
     2
 67
     7
 79
     5
170
     0
171
     0
290
     0
174
     0
 93
        1
 44
50.0
173
     0
291
     1
 45
0.0
1001
ACAD
1000
AcDbSavedByObjectVersion
1070
     0
  0
VISUALSTYLE
  5
3A
102
{ACAD_REACTORS
330
2A
102
}
102
{ACAD_XDICTIONARY
360
3C7
102
}
330
2A
100
AcDbVisualStyle
  2
ColorChange
 70
    16
 71
     2
 72
     2
 73
     3
 90
        0
 40
-0.6
 41
-30.0
 62
     5
 63
     8
 74
     1
 91
        4
 64
     7
 65
   257
 75
     1
175
     1
 42
1.0
 92
        8
 66
     8
 43
1.0
 76
     1
 77
     6
 78
     2
 67
     7
 79
     5
170
     0
171
     0
290
     0
174
     0
 93
        1
 44
0.0
173
     0
291
     1
 45
0.0
1001
ACAD
1000
AcDbSavedByObjectVersion
1070
     0
  0
VISUALSTYLE
  5
34
102
{ACAD_REACTORS
330
2A
102
}
102
{ACAD_XDICTIONARY
360
3BB
102
}
330
2A
100
AcDbVisualStyle
  2
Conceptual
 70
     9
 71
     3
 72
     2
 73
     0
 90
        0
 40
-0.6
 41
-30.0
 62
     5
 63
     7
 74
     2
 91
        2
 64
     7
 65
   257
 75
     1
175
     1
 42
40.0
 92
        8
 66
     7
 43
1.0
 76
     1
 77
     6
 78
     2
 67
     7
 79
     3
170
     0
171
     0
290
     0
174
     0
 93
        1
 44
0.0
173
     0
291
     0
 45
0.0
1001
ACAD
1000
AcDbSavedByObjectVersion
1070
     0
  0
VISUALSTYLE
  5
35
102
{ACAD_REACTORS
330
2A
102
}
102
{ACAD_XDICTIONARY
360
3BD
102
}
330
2A
100
AcDbVisualStyle
  2
Dim
 70
    11
 71
     2
 72
     2
 73
     0
 90
        0
 40
-0.6
 41
-30.0
 62
     5
 63
     7
 74
     1
 91
        4
 64
     7
 65
   257
 75
     1
175
     1
 42
1.0
 92
        8
 66
     7
 43
1.0
 76
     1
 77
     6
 78
     2
 67
     7
 79
     5
170
     0
171
     0
290
     0
174
     0
 93
        1
 44
-50.0
173
     0
291
     1
 45
0.0
1001
ACAD
1000
AcDbSavedByObjectVersion
1070
     0
  0
VISUALSTYLE
  5
39
102
{ACAD_REACTORS
330
2A
102
}
102
{ACAD_XDICTIONARY
360
3C5
102
}
330
2A
100
AcDbVisualStyle
  2
Facepattern
 70
    15
 71
     2
 72
     2
 73
     0
 90
        0
 40
-0.6
 41
-30.0
 62
     5
 63
     7
 74
     1
 91
        4
 64
     7
 65
   257
 75
     1
175
     1
 42
1.0
 92
        8
 66
     7
 43
1.0
 76
     1
 77
     6
 78
     2
 67
     7
 79
     5
170
     0
171
     0
290
     0
174
     0
 93
        1
 44
0.0
173
     0
291
     1
 45
0.0
1001
ACAD
1000
AcDbSavedByObjectVersion
1070
     0
  0
VISUALSTYLE
  5
2B
102
{ACAD_REACTORS
330
2A
102
}
102
{ACAD_XDICTIONARY
360
3A9
102
}
330
2A
100
AcDbVisualStyle
  2
Flat
 70
     0
 71
     2
 72
     1
 73
     1
 90
        2
 40
-0.6
 41
30.0
 62
     5
 63
     7
 74
     0
 91
        4
 64
     7
 65
   257
 75
     1
175
     1
 42
1.0
 92
        8
 66
     7
 43
1.0
 76
     1
 77
     6
 78
     2
 67
     7
 79
     5
170
     0
171
     0
290
     0
174
     0
 93
       13
 44
0.0
173
     0
291
     1
 45
0.0
1001
ACAD
1000
AcDbSavedByObjectVersion
1070
     0
  0
VISUALSTYLE
  5
2C
102
{ACAD_REACTORS
330
2A
102
}
102
{ACAD_XDICTIONARY
360
3AB
102
}
330
2A
100
AcDbVisualStyle
  2
FlatWithEdges
 70
     1
 71
     2
 72
     1
 73
     1
 90
        2
 40
-0.6
 41
30.0
 62
     5
 63
     7
 74
     1
 91
        4
 64
     7
 65
   257
 75
     1
175
     1
 42
1.0
 92
        0
 66
   257
 43
1.0
 76
     1
 77
     6
 78
     2
 67
     7
 79
     5
170
     0
171
     0
290
     0
174
     0
 93
       13
 44
0.0
173
     0
291
     1
 45
0.0
1001
ACAD
1000
AcDbSavedByObjectVersion
1070
     0
  0
VISUALSTYLE
  5
2D
102
{ACAD_REACTORS
330
2A
102
}
102
{ACAD_XDICTIONARY
360
3AD
102
}
330
2A
100
AcDbVisualStyle
  2
Gouraud
 70
     2
 71
     2
 72
     2
 73
     1
 90
        2
 40
-0.6
 41
30.0
 62
     5
 63
     7
 74
     0
 91
        4
 64
     7
 65
   257
 75
     1
175
     1
 42
1.0
 92
        0
 66
     7
 43
1.0
 76
     1
 77
     6
 78
     2
 67
     7
 79
     5
170
     0
171
     0
290
     0
174
     0
 93
       13
 44
0.0
173
     0
291
     1
 45
0.0
1001
ACAD
1000
AcDbSavedByObjectVersion
1070
     0
  0
VISUALSTYLE
  5
2E
102
{ACAD_REACTORS
330
2A
102
}
102
{ACAD_XDICTIONARY
360
3AF
102
}
330
2A
100
AcDbVisualStyle
  2
GouraudWithEdges
 70
     3
 71
     2
 72
     2
 73
     1
 90
        2
 40
-0.6
 41
30.0
 62
     5
 63
     7
 74
     1
 91
        4
 64
     7
 65
   257
 75
     1
175
     1
 42
1.0
 92
        0
 66
   257
 43
1.0
 76
     1
 77
     6
 78
     2
 67
     7
 79
     5
170
     0
171
     0
290
     0
174
     0
 93
       13
 44
0.0
173
     0
291
     1
 45
0.0
1001
ACAD
1000
AcDbSavedByObjectVersion
1070
     0
  0
VISUALSTYLE
  5
38
102
{ACAD_REACTORS
330
2A
102
}
102
{ACAD_XDICTIONARY
360
3C3
102
}
330
2A
100
AcDbVisualStyle
  2
Linepattern
 70
    14
 71
     2
 72
     2
 73
     0
 90
        0
 40
-0.6
 41
-30.0
 62
     5
 63
     7
 74
     1
 91
        4
 64
     7
 65
   257
 75
     7
175
     7
 42
1.0
 92
        8
 66
     7
 43
1.0
 76
     1
 77
     6
 78
     2
 67
     7
 79
     5
170
     0
171
     0
290
     0
174
     0
 93
        1
 44
0.0
173
     0
291
     1
 45
0.0
1001
ACAD
1000
AcDbSavedByObjectVersion
1070
     0
  0
VISUALSTYLE
  5
33
102
{ACAD_REACTORS
330
2A
102
}
102
{ACAD_XDICTIONARY
360
3B9
102
}
330
2A
100
AcDbVisualStyle
  2
Realistic
 70
     8
 71
     2
 72
     2
 73
     0
 90
        0
 40
-0.6
 41
-30.0
 62
     5
 63
     7
 74
     1
 91
        0
 64
     7
 65
   257
 75
     1
175
     1
 42
1.0
 92
        8
 66
     8
 43
1.0
 76
     1
 77
     6
 78
     2
 67
     7
 79
     5
170
     0
171
     0
290
     0
174
     0
 93
       13
 44
0.0
173
     0
291
     0
 45
0.0
1001
ACAD
1000
AcDbSavedByObjectVersion
1070
     0
  0
VISUALSTYLE
  5
37
102
{ACAD_REACTORS
330
2A
102
}
102
{ACAD_XDICTIONARY
360
3C1
102
}
330
2A
100
AcDbVisualStyle
  2
Thicken
 70
    13
 71
     2
 72
     2
 73
     0
 90
        0
 40
-0.6
 41
-30.0
 62
     5
 63
     7
 74
     1
 91
        4
 64
     7
 65
   257
 75
     1
175
     1
 42
1.0
 92
       12
 66
     7
 43
1.0
 76
     1
 77
     6
 78
     2
 67
     7
 79
     5
170
     0
171
     0
290
     0
174
     0
 93
        1
 44
0.0
173
     0
291
     1
 45
0.0
1001
ACAD
1000
AcDbSavedByObjectVersion
1070
     0
  0
DICTIONARYVAR
  5
3A7
102
{ACAD_REACTORS
330
3A4
102
}
330
3A4
100
DictionaryVariables
280
     0
  1
2
  0
DICTIONARYVAR
  5
3A8
102
{ACAD_REACTORS
330
3A4
102
}
330
3A4
100
DictionaryVariables
280
     0
  1
1
  0
DICTIONARY
  5
3CB
330
3D
100
AcDbDictionary
280
     1
281
     1
  3
ACAD_XREC_ROUNDTRIP
360
3CC
  0
DICTIONARY
  5
3C9
330
3C
100
AcDbDictionary
280
     1
281
     1
  3
ACAD_XREC_ROUNDTRIP
360
3CA
  0
DICTIONARY
  5
3CD
330
3E
100
AcDbDictionary
280
     1
281
     1
  3
ACAD_XREC_ROUNDTRIP
360
3CE
  0
DICTIONARY
  5
3B1
330
2F
100
AcDbDictionary
280
     1
281
     1
  3
ACAD_XREC_ROUNDTRIP
360
3B2
  0
DICTIONARY
  5
3B5
330
31
100
AcDbDictionary
280
     1
281
     1
  3
ACAD_XREC_ROUNDTRIP
360
3B6
  0
DICTIONARY
  5
3B3
330
30
100
AcDbDictionary
280
     1
281
     1
  3
ACAD_XREC_ROUNDTRIP
360
3B4
  0
DICTIONARY
  5
3B7
330
32
100
AcDbDictionary
280
     1
281
     1
  3
ACAD_XREC_ROUNDTRIP
360
3B8
  0
DICTIONARY
  5
3BF
330
36
100
AcDbDictionary
280
     1
281
     1
  3
ACAD_XREC_ROUNDTRIP
360
3C0
  0
DICTIONARY
  5
3C7
330
3A
100
AcDbDictionary
280
     1
281
     1
  3
ACAD_XREC_ROUNDTRIP
360
3C8
  0
DICTIONARY
  5
3BB
330
34
100
AcDbDictionary
280
     1
281
     1
  3
ACAD_XREC_ROUNDTRIP
360
3BC
  0
DICTIONARY
  5
3BD
330
35
100
AcDbDictionary
280
     1
281
     1
  3
ACAD_XREC_ROUNDTRIP
360
3BE
  0
DICTIONARY
  5
3C5
330
39
100
AcDbDictionary
280
     1
281
     1
  3
ACAD_XREC_ROUNDTRIP
360
3C6
  0
DICTIONARY
  5
3A9
330
2B
100
AcDbDictionary
280
     1
281
     1
  3
ACAD_XREC_ROUNDTRIP
360
3AA
  0
DICTIONARY
  5
3AB
330
2C
100
AcDbDictionary
280
     1
281
     1
  3
ACAD_XREC_ROUNDTRIP
360
3AC
  0
DICTIONARY
  5
3AD
330
2D
100
AcDbDictionary
280
     1
281
     1
  3
ACAD_XREC_ROUNDTRIP
360
3AE
  0
DICTIONARY
  5
3AF
330
2E
100
AcDbDictionary
280
     1
281
     1
  3
ACAD_XREC_ROUNDTRIP
360
3B0
  0
DICTIONARY
  5
3C3
330
38
100
AcDbDictionary
280
     1
281
     1
  3
ACAD_XREC_ROUNDTRIP
360
3C4
  0
DICTIONARY
  5
3B9
330
33
100
AcDbDictionary
280
     1
281
     1
  3
ACAD_XREC_ROUNDTRIP
360
3BA
  0
DICTIONARY
  5
3C1
330
37
100
AcDbDictionary
280
     1
281
     1
  3
ACAD_XREC_ROUNDTRIP
360
3C2
  0
XRECORD
  5
3CC
102
{ACAD_REACTORS
330
3CB
102
}
330
3CB
100
AcDbXrecord
280
     1
102
MATERIAL
148
0.0
149
0.0
149
0.0
 93
        0
 94
      127
282
     0
 72
     1
 77
     1
171
     1
175
     1
179
     1
273
     0
  0
XRECORD
  5
3CA
102
{ACAD_REACTORS
330
3C9
102
}
330
3C9
100
AcDbXrecord
280
     1
102
MATERIAL
148
0.0
149
0.0
149
0.0
 93
        0
 94
      127
282
     0
 72
     1
 77
     1
171
     1
175
     1
179
     1
273
     0
  0
XRECORD
  5
3CE
102
{ACAD_REACTORS
330
3CD
102
}
330
3CD
100
AcDbXrecord
280
     1
102
MATERIAL
148
0.0
149
0.0
149
0.0
 93
        0
 94
      127
282
     0
 72
     1
 77
     1
171
     1
175
     1
179
     1
273
     0
  0
XRECORD
  5
3B2
102
{ACAD_REACTORS
330
3B1
102
}
330
3B1
100
AcDbXrecord
280
     1
102
RTVSPropertyOp0
 70
     1
102
RTVSPropertyOp1
 70
     1
102
RTVSPropertyOp2
 70
     1
102
RTVSPropertyOp3
 70
     1
102
RTVSPropertyOp4
 70
     1
102
RTVSPropertyOp5
 70
     1
102
RTVSPropertyOp6
 70
     1
102
RTVSPropertyOp7
 70
     1
102
RTVSPropertyOp8
 70
     1
102
RTVSPropertyOp9
 70
     1
102
RTVSPropertyOp10
 70
     1
102
RTVSPropertyOp11
 70
     1
102
RTVSPropertyOp12
 70
     1
102
RTVSPropertyOp13
 70
     1
102
RTVSPropertyOp14
 70
     1
102
RTVSPropertyOp15
 70
     1
102
RTVSPropertyOp16
 70
     1
102
RTVSPropertyOp17
 70
     1
102
RTVSPropertyOp18
 70
     1
102
RTVSPropertyOp19
 70
     1
102
RTVSPropertyOp20
 70
     1
102
RTVSPropertyOp21
 70
     1
102
RTVSPropertyOp22
 70
     1
102
RTVSPropertyOp23
 70
     1
102
RTVSPropertyOp24
 70
     1
102
RTVSPropertyOp25
 70
     1
102
RTVSPropertyOp26
 70
     1
102
RTVSPropertyOp27
 70
     1
102
RTVSPropertyOp28
 70
     1
102
RTVSPropertyOp29
 70
     1
102
RTVSPropertyOp30
 70
     1
102
RTVSPropertyOp31
 70
     1
102
RTVSPropertyOp32
 70
     1
  0
XRECORD
  5
3B6
102
{ACAD_REACTORS
330
3B5
102
}
330
3B5
100
AcDbXrecord
280
     1
102
RTVSPropertyOp0
 70
     1
102
RTVSPropertyOp1
 70
     1
102
RTVSPropertyOp2
 70
     1
102
RTVSPropertyOp3
 70
     1
102
RTVSPropertyOp4
 70
     1
102
RTVSPropertyOp5
 70
     1
102
RTVSPropertyOp6
 70
     1
102
RTVSPropertyOp7
 70
     1
102
RTVSPropertyOp8
 70
     1
102
RTVSPropertyOp9
 70
     1
102
RTVSPropertyOp10
 70
     1
102
RTVSPropertyOp11
 70
     1
102
RTVSPropertyOp12
 70
     1
102
RTVSPropertyOp13
 70
     1
102
RTVSPropertyOp14
 70
     1
102
RTVSPropertyOp15
 70
     1
102
RTVSPropertyOp16
 70
     1
102
RTVSPropertyOp17
 70
     1
102
RTVSPropertyOp18
 70
     1
102
RTVSPropertyOp19
 70
     1
102
RTVSPropertyOp20
 70
     1
102
RTVSPropertyOp21
 70
     1
102
RTVSPropertyOp22
 70
     1
102
RTVSPropertyOp23
 70
     1
102
RTVSPropertyOp24
 70
     1
102
RTVSPropertyOp25
 70
     1
102
RTVSPropertyOp26
 70
     1
102
RTVSPropertyOp27
 70
     1
102
RTVSPropertyOp28
 70
     1
102
RTVSPropertyOp29
 70
     1
102
RTVSPropertyOp30
 70
     1
102
RTVSPropertyOp31
 70
     1
102
RTVSPropertyOp32
 70
     1
  0
XRECORD
  5
3B4
102
{ACAD_REACTORS
330
3B3
102
}
330
3B3
100
AcDbXrecord
280
     1
102
RTVSPropertyOp0
 70
     1
102
RTVSPropertyOp1
 70
     1
102
RTVSPropertyOp2
 70
     1
102
RTVSPropertyOp3
 70
     1
102
RTVSPropertyOp4
 70
     1
102
RTVSPropertyOp5
 70
     1
102
RTVSPropertyOp6
 70
     1
102
RTVSPropertyOp7
 70
     1
102
RTVSPropertyOp8
 70
     1
102
RTVSPropertyOp9
 70
     1
102
RTVSPropertyOp10
 70
     1
102
RTVSPropertyOp11
 70
     1
102
RTVSPropertyOp12
 70
     1
102
RTVSPropertyOp13
 70
     1
102
RTVSPropertyOp14
 70
     1
102
RTVSPropertyOp15
 70
     1
102
RTVSPropertyOp16
 70
     1
102
RTVSPropertyOp17
 70
     1
102
RTVSPropertyOp18
 70
     1
102
RTVSPropertyOp19
 70
     1
102
RTVSPropertyOp20
 70
     1
102
RTVSPropertyOp21
 70
     1
102
RTVSPropertyOp22
 70
     1
102
RTVSPropertyOp23
 70
     1
102
RTVSPropertyOp24
 70
     1
102
RTVSPropertyOp25
 70
     1
102
RTVSPropertyOp26
 70
     1
102
RTVSPropertyOp27
 70
     1
102
RTVSPropertyOp28
 70
     1
102
RTVSPropertyOp29
 70
     1
102
RTVSPropertyOp30
 70
     1
102
RTVSPropertyOp31
 70
     1
102
RTVSPropertyOp32
 70
     1
  0
XRECORD
  5
3B8
102
{ACAD_REACTORS
330
3B7
102
}
330
3B7
100
AcDbXrecord
280
     1
102
RTVSPropertyOp0
 70
     1
102
RTVSPropertyOp1
 70
     1
102
RTVSPropertyOp2
 70
     1
102
RTVSPropertyOp3
 70
     1
102
RTVSPropertyOp4
 70
     1
102
RTVSPropertyOp5
 70
     1
102
RTVSPropertyOp6
 70
     1
102
RTVSPropertyOp7
 70
     1
102
RTVSPropertyOp8
 70
     1
102
RTVSPropertyOp9
 70
     1
102
RTVSPropertyOp10
 70
     1
102
RTVSPropertyOp11
 70
     1
102
RTVSPropertyOp12
 70
     1
102
RTVSPropertyOp13
 70
     1
102
RTVSPropertyOp14
 70
     1
102
RTVSPropertyOp15
 70
     1
102
RTVSPropertyOp16
 70
     1
102
RTVSPropertyOp17
 70
     1
102
RTVSPropertyOp18
 70
     1
102
RTVSPropertyOp19
 70
     1
102
RTVSPropertyOp20
 70
     1
102
RTVSPropertyOp21
 70
     1
102
RTVSPropertyOp22
 70
     1
102
RTVSPropertyOp23
 70
     1
102
RTVSPropertyOp24
 70
     1
102
RTVSPropertyOp25
 70
     1
102
RTVSPropertyOp26
 70
     1
102
RTVSPropertyOp27
 70
     1
102
RTVSPropertyOp28
 70
     1
102
RTVSPropertyOp29
 70
     1
102
RTVSPropertyOp30
 70
     1
102
RTVSPropertyOp31
 70
     1
102
RTVSPropertyOp32
 70
     1
  0
XRECORD
  5
3C0
102
{ACAD_REACTORS
330
3BF
102
}
330
3BF
100
AcDbXrecord
280
     1
102
RTVSPropertyOp0
 70
     1
102
RTVSPropertyOp1
 70
     1
102
RTVSPropertyOp2
 70
     1
102
RTVSPropertyOp3
 70
     1
102
RTVSPropertyOp4
 70
     1
102
RTVSPropertyOp5
 70
     1
102
RTVSPropertyOp6
 70
     1
102
RTVSPropertyOp7
 70
     1
102
RTVSPropertyOp8
 70
     1
102
RTVSPropertyOp9
 70
     1
102
RTVSPropertyOp10
 70
     1
102
RTVSPropertyOp11
 70
     1
102
RTVSPropertyOp12
 70
     1
102
RTVSPropertyOp13
 70
     1
102
RTVSPropertyOp14
 70
     1
102
RTVSPropertyOp15
 70
     1
102
RTVSPropertyOp16
 70
     1
102
RTVSPropertyOp17
 70
     1
102
RTVSPropertyOp18
 70
     1
102
RTVSPropertyOp19
 70
     1
102
RTVSPropertyOp20
 70
     1
102
RTVSPropertyOp21
 70
     1
102
RTVSPropertyOp22
 70
     1
102
RTVSPropertyOp23
 70
     1
102
RTVSPropertyOp24
 70
     1
102
RTVSPropertyOp25
 70
     1
102
RTVSPropertyOp26
 70
     1
102
RTVSPropertyOp27
 70
     1
102
RTVSPropertyOp28
 70
     1
102
RTVSPropertyOp29
 70
     1
102
RTVSPropertyOp30
 70
     1
102
RTVSPropertyOp31
 70
     1
102
RTVSPropertyOp32
 70
     1
  0
XRECORD
  5
3C8
102
{ACAD_REACTORS
330
3C7
102
}
330
3C7
100
AcDbXrecord
280
     1
102
RTVSPropertyOp0
 70
     1
102
RTVSPropertyOp1
 70
     1
102
RTVSPropertyOp2
 70
     1
102
RTVSPropertyOp3
 70
     1
102
RTVSPropertyOp4
 70
     1
102
RTVSPropertyOp5
 70
     1
102
RTVSPropertyOp6
 70
     1
102
RTVSPropertyOp7
 70
     1
102
RTVSPropertyOp8
 70
     1
102
RTVSPropertyOp9
 70
     1
102
RTVSPropertyOp10
 70
     1
102
RTVSPropertyOp11
 70
     1
102
RTVSPropertyOp12
 70
     1
102
RTVSPropertyOp13
 70
     1
102
RTVSPropertyOp14
 70
     1
102
RTVSPropertyOp15
 70
     1
102
RTVSPropertyOp16
 70
     1
102
RTVSPropertyOp17
 70
     1
102
RTVSPropertyOp18
 70
     1
102
RTVSPropertyOp19
 70
     1
102
RTVSPropertyOp20
 70
     1
102
RTVSPropertyOp21
 70
     1
102
RTVSPropertyOp22
 70
     1
102
RTVSPropertyOp23
 70
     1
102
RTVSPropertyOp24
 70
     1
102
RTVSPropertyOp25
 70
     1
102
RTVSPropertyOp26
 70
     1
102
RTVSPropertyOp27
 70
     1
102
RTVSPropertyOp28
 70
     1
102
RTVSPropertyOp29
 70
     1
102
RTVSPropertyOp30
 70
     1
102
RTVSPropertyOp31
 70
     1
102
RTVSPropertyOp32
 70
     1
  0
XRECORD
  5
3BC
102
{ACAD_REACTORS
330
3BB
102
}
330
3BB
100
AcDbXrecord
280
     1
102
RTVSPropertyOp0
 70
     1
102
RTVSPropertyOp1
 70
     1
102
RTVSPropertyOp2
 70
     1
102
RTVSPropertyOp3
 70
     1
102
RTVSPropertyOp4
 70
     1
102
RTVSPropertyOp5
 70
     1
102
RTVSPropertyOp6
 70
     1
102
RTVSPropertyOp7
 70
     1
102
RTVSPropertyOp8
 70
     1
102
RTVSPropertyOp9
 70
     1
102
RTVSPropertyOp10
 70
     1
102
RTVSPropertyOp11
 70
     1
102
RTVSPropertyOp12
 70
     1
102
RTVSPropertyOp13
 70
     1
102
RTVSPropertyOp14
 70
     1
102
RTVSPropertyOp15
 70
     1
102
RTVSPropertyOp16
 70
     1
102
RTVSPropertyOp17
 70
     1
102
RTVSPropertyOp18
 70
     1
102
RTVSPropertyOp19
 70
     1
102
RTVSPropertyOp20
 70
     1
102
RTVSPropertyOp21
 70
     1
102
RTVSPropertyOp22
 70
     1
102
RTVSPropertyOp23
 70
     1
102
RTVSPropertyOp24
 70
     1
102
RTVSPropertyOp25
 70
     1
102
RTVSPropertyOp26
 70
     1
102
RTVSPropertyOp27
 70
     1
102
RTVSPropertyOp28
 70
     1
102
RTVSPropertyOp29
 70
     1
102
RTVSPropertyOp30
 70
     1
102
RTVSPropertyOp31
 70
     1
102
RTVSPropertyOp32
 70
     1
  0
XRECORD
  5
3BE
102
{ACAD_REACTORS
330
3BD
102
}
330
3BD
100
AcDbXrecord
280
     1
102
RTVSPropertyOp0
 70
     1
102
RTVSPropertyOp1
 70
     1
102
RTVSPropertyOp2
 70
     1
102
RTVSPropertyOp3
 70
     1
102
RTVSPropertyOp4
 70
     1
102
RTVSPropertyOp5
 70
     1
102
RTVSPropertyOp6
 70
     1
102
RTVSPropertyOp7
 70
     1
102
RTVSPropertyOp8
 70
     1
102
RTVSPropertyOp9
 70
     1
102
RTVSPropertyOp10
 70
     1
102
RTVSPropertyOp11
 70
     1
102
RTVSPropertyOp12
 70
     1
102
RTVSPropertyOp13
 70
     1
102
RTVSPropertyOp14
 70
     1
102
RTVSPropertyOp15
 70
     1
102
RTVSPropertyOp16
 70
     1
102
RTVSPropertyOp17
 70
     1
102
RTVSPropertyOp18
 70
     1
102
RTVSPropertyOp19
 70
     1
102
RTVSPropertyOp20
 70
     1
102
RTVSPropertyOp21
 70
     1
102
RTVSPropertyOp22
 70
     1
102
RTVSPropertyOp23
 70
     1
102
RTVSPropertyOp24
 70
     1
102
RTVSPropertyOp25
 70
     1
102
RTVSPropertyOp26
 70
     1
102
RTVSPropertyOp27
 70
     1
102
RTVSPropertyOp28
 70
     1
102
RTVSPropertyOp29
 70
     1
102
RTVSPropertyOp30
 70
     1
102
RTVSPropertyOp31
 70
     1
102
RTVSPropertyOp32
 70
     1
  0
XRECORD
  5
3C6
102
{ACAD_REACTORS
330
3C5
102
}
330
3C5
100
AcDbXrecord
280
     1
102
RTVSPropertyOp0
 70
     1
102
RTVSPropertyOp1
 70
     1
102
RTVSPropertyOp2
 70
     1
102
RTVSPropertyOp3
 70
     1
102
RTVSPropertyOp4
 70
     1
102
RTVSPropertyOp5
 70
     1
102
RTVSPropertyOp6
 70
     1
102
RTVSPropertyOp7
 70
     1
102
RTVSPropertyOp8
 70
     1
102
RTVSPropertyOp9
 70
     1
102
RTVSPropertyOp10
 70
     1
102
RTVSPropertyOp11
 70
     1
102
RTVSPropertyOp12
 70
     1
102
RTVSPropertyOp13
 70
     1
102
RTVSPropertyOp14
 70
     1
102
RTVSPropertyOp15
 70
     1
102
RTVSPropertyOp16
 70
     1
102
RTVSPropertyOp17
 70
     1
102
RTVSPropertyOp18
 70
     1
102
RTVSPropertyOp19
 70
     1
102
RTVSPropertyOp20
 70
     1
102
RTVSPropertyOp21
 70
     1
102
RTVSPropertyOp22
 70
     1
102
RTVSPropertyOp23
 70
     1
102
RTVSPropertyOp24
 70
     1
102
RTVSPropertyOp25
 70
     1
102
RTVSPropertyOp26
 70
     1
102
RTVSPropertyOp27
 70
     1
102
RTVSPropertyOp28
 70
     1
102
RTVSPropertyOp29
 70
     1
102
RTVSPropertyOp30
 70
     1
102
RTVSPropertyOp31
 70
     1
102
RTVSPropertyOp32
 70
     1
  0
XRECORD
  5
3AA
102
{ACAD_REACTORS
330
3A9
102
}
330
3A9
100
AcDbXrecord
280
     1
102
RTVSPropertyOp0
 70
     1
102
RTVSPropertyOp1
 70
     1
102
RTVSPropertyOp2
 70
     1
102
RTVSPropertyOp3
 70
     1
102
RTVSPropertyOp4
 70
     1
102
RTVSPropertyOp5
 70
     1
102
RTVSPropertyOp6
 70
     1
102
RTVSPropertyOp7
 70
     1
102
RTVSPropertyOp8
 70
     1
102
RTVSPropertyOp9
 70
     1
102
RTVSPropertyOp10
 70
     1
102
RTVSPropertyOp11
 70
     1
102
RTVSPropertyOp12
 70
     1
102
RTVSPropertyOp13
 70
     1
102
RTVSPropertyOp14
 70
     1
102
RTVSPropertyOp15
 70
     1
102
RTVSPropertyOp16
 70
     1
102
RTVSPropertyOp17
 70
     1
102
RTVSPropertyOp18
 70
     1
102
RTVSPropertyOp19
 70
     1
102
RTVSPropertyOp20
 70
     1
102
RTVSPropertyOp21
 70
     1
102
RTVSPropertyOp22
 70
     1
102
RTVSPropertyOp23
 70
     1
102
RTVSPropertyOp24
 70
     1
102
RTVSPropertyOp25
 70
     1
102
RTVSPropertyOp26
 70
     1
102
RTVSPropertyOp27
 70
     1
102
RTVSPropertyOp28
 70
     1
102
RTVSPropertyOp29
 70
     1
102
RTVSPropertyOp30
 70
     1
102
RTVSPropertyOp31
 70
     1
102
RTVSPropertyOp32
 70
     1
  0
XRECORD
  5
3AC
102
{ACAD_REACTORS
330
3AB
102
}
330
3AB
100
AcDbXrecord
280
     1
102
RTVSPropertyOp0
 70
     1
102
RTVSPropertyOp1
 70
     1
102
RTVSPropertyOp2
 70
     1
102
RTVSPropertyOp3
 70
     1
102
RTVSPropertyOp4
 70
     1
102
RTVSPropertyOp5
 70
     1
102
RTVSPropertyOp6
 70
     1
102
RTVSPropertyOp7
 70
     1
102
RTVSPropertyOp8
 70
     1
102
RTVSPropertyOp9
 70
     1
102
RTVSPropertyOp10
 70
     1
102
RTVSPropertyOp11
 70
     1
102
RTVSPropertyOp12
 70
     1
102
RTVSPropertyOp13
 70
     1
102
RTVSPropertyOp14
 70
     1
102
RTVSPropertyOp15
 70
     1
102
RTVSPropertyOp16
 70
     1
102
RTVSPropertyOp17
 70
     1
102
RTVSPropertyOp18
 70
     1
102
RTVSPropertyOp19
 70
     1
102
RTVSPropertyOp20
 70
     1
102
RTVSPropertyOp21
 70
     1
102
RTVSPropertyOp22
 70
     1
102
RTVSPropertyOp23
 70
     1
102
RTVSPropertyOp24
 70
     1
102
RTVSPropertyOp25
 70
     1
102
RTVSPropertyOp26
 70
     1
102
RTVSPropertyOp27
 70
     1
102
RTVSPropertyOp28
 70
     1
102
RTVSPropertyOp29
 70
     1
102
RTVSPropertyOp30
 70
     1
102
RTVSPropertyOp31
 70
     1
102
RTVSPropertyOp32
 70
     1
  0
XRECORD
  5
3AE
102
{ACAD_REACTORS
330
3AD
102
}
330
3AD
100
AcDbXrecord
280
     1
102
RTVSPropertyOp0
 70
     1
102
RTVSPropertyOp1
 70
     1
102
RTVSPropertyOp2
 70
     1
102
RTVSPropertyOp3
 70
     1
102
RTVSPropertyOp4
 70
     1
102
RTVSPropertyOp5
 70
     1
102
RTVSPropertyOp6
 70
     1
102
RTVSPropertyOp7
 70
     1
102
RTVSPropertyOp8
 70
     1
102
RTVSPropertyOp9
 70
     1
102
RTVSPropertyOp10
 70
     1
102
RTVSPropertyOp11
 70
     1
102
RTVSPropertyOp12
 70
     1
102
RTVSPropertyOp13
 70
     1
102
RTVSPropertyOp14
 70
     1
102
RTVSPropertyOp15
 70
     1
102
RTVSPropertyOp16
 70
     1
102
RTVSPropertyOp17
 70
     1
102
RTVSPropertyOp18
 70
     1
102
RTVSPropertyOp19
 70
     1
102
RTVSPropertyOp20
 70
     1
102
RTVSPropertyOp21
 70
     1
102
RTVSPropertyOp22
 70
     1
102
RTVSPropertyOp23
 70
     1
102
RTVSPropertyOp24
 70
     1
102
RTVSPropertyOp25
 70
     1
102
RTVSPropertyOp26
 70
     1
102
RTVSPropertyOp27
 70
     1
102
RTVSPropertyOp28
 70
     1
102
RTVSPropertyOp29
 70
     1
102
RTVSPropertyOp30
 70
     1
102
RTVSPropertyOp31
 70
     1
102
RTVSPropertyOp32
 70
     1
  0
XRECORD
  5
3B0
102
{ACAD_REACTORS
330
3AF
102
}
330
3AF
100
AcDbXrecord
280
     1
102
RTVSPropertyOp0
 70
     1
102
RTVSPropertyOp1
 70
     1
102
RTVSPropertyOp2
 70
     1
102
RTVSPropertyOp3
 70
     1
102
RTVSPropertyOp4
 70
     1
102
RTVSPropertyOp5
 70
     1
102
RTVSPropertyOp6
 70
     1
102
RTVSPropertyOp7
 70
     1
102
RTVSPropertyOp8
 70
     1
102
RTVSPropertyOp9
 70
     1
102
RTVSPropertyOp10
 70
     1
102
RTVSPropertyOp11
 70
     1
102
RTVSPropertyOp12
 70
     1
102
RTVSPropertyOp13
 70
     1
102
RTVSPropertyOp14
 70
     1
102
RTVSPropertyOp15
 70
     1
102
RTVSPropertyOp16
 70
     1
102
RTVSPropertyOp17
 70
     1
102
RTVSPropertyOp18
 70
     1
102
RTVSPropertyOp19
 70
     1
102
RTVSPropertyOp20
 70
     1
102
RTVSPropertyOp21
 70
     1
102
RTVSPropertyOp22
 70
     1
102
RTVSPropertyOp23
 70
     1
102
RTVSPropertyOp24
 70
     1
102
RTVSPropertyOp25
 70
     1
102
RTVSPropertyOp26
 70
     1
102
RTVSPropertyOp27
 70
     1
102
RTVSPropertyOp28
 70
     1
102
RTVSPropertyOp29
 70
     1
102
RTVSPropertyOp30
 70
     1
102
RTVSPropertyOp31
 70
     1
102
RTVSPropertyOp32
 70
     1
  0
XRECORD
  5
3C4
102
{ACAD_REACTORS
330
3C3
102
}
330
3C3
100
AcDbXrecord
280
     1
102
RTVSPropertyOp0
 70
     1
102
RTVSPropertyOp1
 70
     1
102
RTVSPropertyOp2
 70
     1
102
RTVSPropertyOp3
 70
     1
102
RTVSPropertyOp4
 70
     1
102
RTVSPropertyOp5
 70
     1
102
RTVSPropertyOp6
 70
     1
102
RTVSPropertyOp7
 70
     1
102
RTVSPropertyOp8
 70
     1
102
RTVSPropertyOp9
 70
     1
102
RTVSPropertyOp10
 70
     1
102
RTVSPropertyOp11
 70
     1
102
RTVSPropertyOp12
 70
     1
102
RTVSPropertyOp13
 70
     1
102
RTVSPropertyOp14
 70
     1
102
RTVSPropertyOp15
 70
     1
102
RTVSPropertyOp16
 70
     1
102
RTVSPropertyOp17
 70
     1
102
RTVSPropertyOp18
 70
     1
102
RTVSPropertyOp19
 70
     1
102
RTVSPropertyOp20
 70
     1
102
RTVSPropertyOp21
 70
     1
102
RTVSPropertyOp22
 70
     1
102
RTVSPropertyOp23
 70
     1
102
RTVSPropertyOp24
 70
     1
102
RTVSPropertyOp25
 70
     1
102
RTVSPropertyOp26
 70
     1
102
RTVSPropertyOp27
 70
     1
102
RTVSPropertyOp28
 70
     1
102
RTVSPropertyOp29
 70
     1
102
RTVSPropertyOp30
 70
     1
102
RTVSPropertyOp31
 70
     1
102
RTVSPropertyOp32
 70
     1
  0
XRECORD
  5
3BA
102
{ACAD_REACTORS
330
3B9
102
}
330
3B9
100
AcDbXrecord
280
     1
102
RTVSPropertyOp0
 70
     1
102
RTVSPropertyOp1
 70
     1
102
RTVSPropertyOp2
 70
     1
102
RTVSPropertyOp3
 70
     1
102
RTVSPropertyOp4
 70
     1
102
RTVSPropertyOp5
 70
     1
102
RTVSPropertyOp6
 70
     1
102
RTVSPropertyOp7
 70
     1
102
RTVSPropertyOp8
 70
     1
102
RTVSPropertyOp9
 70
     1
102
RTVSPropertyOp10
 70
     1
102
RTVSPropertyOp11
 70
     1
102
RTVSPropertyOp12
 70
     1
102
RTVSPropertyOp13
 70
     1
102
RTVSPropertyOp14
 70
     1
102
RTVSPropertyOp15
 70
     1
102
RTVSPropertyOp16
 70
     1
102
RTVSPropertyOp17
 70
     1
102
RTVSPropertyOp18
 70
     1
102
RTVSPropertyOp19
 70
     1
102
RTVSPropertyOp20
 70
     1
102
RTVSPropertyOp21
 70
     1
102
RTVSPropertyOp22
 70
     1
102
RTVSPropertyOp23
 70
     1
102
RTVSPropertyOp24
 70
     1
102
RTVSPropertyOp25
 70
     1
102
RTVSPropertyOp26
 70
     1
102
RTVSPropertyOp27
 70
     1
102
RTVSPropertyOp28
 70
     1
102
RTVSPropertyOp29
 70
     1
102
RTVSPropertyOp30
 70
     1
102
RTVSPropertyOp31
 70
     1
102
RTVSPropertyOp32
 70
     1
  0
XRECORD
  5
3C2
102
{ACAD_REACTORS
330
3C1
102
}
330
3C1
100
AcDbXrecord
280
     1
102
RTVSPropertyOp0
 70
     1
102
RTVSPropertyOp1
 70
     1
102
RTVSPropertyOp2
 70
     1
102
RTVSPropertyOp3
 70
     1
102
RTVSPropertyOp4
 70
     1
102
RTVSPropertyOp5
 70
     1
102
RTVSPropertyOp6
 70
     1
102
RTVSPropertyOp7
 70
     1
102
RTVSPropertyOp8
 70
     1
102
RTVSPropertyOp9
 70
     1
102
RTVSPropertyOp10
 70
     1
102
RTVSPropertyOp11
 70
     1
102
RTVSPropertyOp12
 70
     1
102
RTVSPropertyOp13
 70
     1
102
RTVSPropertyOp14
 70
     1
102
RTVSPropertyOp15
 70
     1
102
RTVSPropertyOp16
 70
     1
102
RTVSPropertyOp17
 70
     1
102
RTVSPropertyOp18
 70
     1
102
RTVSPropertyOp19
 70
     1
102
RTVSPropertyOp20
 70
     1
102
RTVSPropertyOp21
 70
     1
102
RTVSPropertyOp22
 70
     1
102
RTVSPropertyOp23
 70
     1
102
RTVSPropertyOp24
 70
     1
102
RTVSPropertyOp25
 70
     1
102
RTVSPropertyOp26
 70
     1
102
RTVSPropertyOp27
 70
     1
102
RTVSPropertyOp28
 70
     1
102
RTVSPropertyOp29
 70
     1
102
RTVSPropertyOp30
 70
     1
102
RTVSPropertyOp31
 70
     1
102
RTVSPropertyOp32
 70
     1
  0
ENDSEC
  0
EOF
